Поиск

(jazz) William Parker w/ Raining On the Moon - Corn Meal Dance 2007, FLAC (tracks+.cue), lossless

Треклист:


William Parker w/ Raining On the Moon
Corn Meal Dance
Жанр: jazz
Год выпуска: 2007
Формат: FLAC (tracks+.cue)
Битрейт аудио: lossless
Продолжительность 01`09`44
Источник: ed2k
Lewis Barnes Trumpet
Leena Conquest Vocals
Hamid Drake Drums
William Parker Bass
Eri Yamamoto Piano

tracks

1. Doctor Yesterday 8:44
2. Tutsi Orphans 7:17
3. Poem For June Jordan 3:04
4. Soledad 9:57
5. Corn Meal Dance 9:02
6. Land Song 11:40
7. Prayer 3:58
8. Old Tears 8:41
9. Gilmore's Hat 7:16


 
logfile
EAC extraction logfile from 5. September 2008, 9:39 for CD
William Parker w/ Raining On the Moon / Corn Meal Dance
Used drive : SONY DVD-ROM DDU1615 Adapter: 0 ID: 0
Read mode : Secure with NO C2, accurate stream, disable cache
Read offset correction : 6
Overread into Lead-In and Lead-Out : No
Used output format : C:\Program Files\Flac\flac.exe (User Defined Encoder)
128 kBit/s
Additional command line options : -V -8 -T "artist=%a" -T "title=%t" -T "album=%g" -T "date=%y" -T "tracknumber=%n" -T "genre=%m" %s
Other options :
Fill up missing offset samples with silence : Yes
Delete leading and trailing silent blocks : No
Native Win32 interface for Win NT & 2000
Track 1
Filename D:\DOWNLOADS\__UPLOADS\William Parker w, Raining On the Moon - Corn Meal Dance (2007) [FLAC]\01 - Doctor Yesterday.wav
Pre-gap length 0:00:02.00
Peak level 98.8 %
Track quality 100.0 %
Test CRC 4DED2277
Copy CRC 4DED2277
Copy OK
Track 2
Filename D:\DOWNLOADS\__UPLOADS\William Parker w, Raining On the Moon - Corn Meal Dance (2007) [FLAC]\02 - Tutsi Orphans.wav
Pre-gap length 0:00:02.00
Peak level 98.8 %
Track quality 100.0 %
Test CRC 896A5373
Copy CRC 896A5373
Copy OK
Track 3
Filename D:\DOWNLOADS\__UPLOADS\William Parker w, Raining On the Moon - Corn Meal Dance (2007) [FLAC]\03 - Poem for June Jordan.wav
Pre-gap length 0:00:02.00
Peak level 98.8 %
Track quality 100.0 %
Test CRC F1F1F644
Copy CRC F1F1F644
Copy OK
Track 4
Filename D:\DOWNLOADS\__UPLOADS\William Parker w, Raining On the Moon - Corn Meal Dance (2007) [FLAC]\04 - Soledad.wav
Pre-gap length 0:00:02.00
Peak level 98.8 %
Track quality 100.0 %
Test CRC E3235569
Copy CRC E3235569
Copy OK
Track 5
Filename D:\DOWNLOADS\__UPLOADS\William Parker w, Raining On the Moon - Corn Meal Dance (2007) [FLAC]\05 - Corn Meal Dance.wav
Pre-gap length 0:00:02.00
Peak level 98.8 %
Track quality 99.9 %
Test CRC AFCBFF24
Copy CRC AFCBFF24
Copy OK
Track 6
Filename D:\DOWNLOADS\__UPLOADS\William Parker w, Raining On the Moon - Corn Meal Dance (2007) [FLAC]\06 - Land Song.wav
Pre-gap length 0:00:02.00
Peak level 98.8 %
Track quality 99.8 %
Test CRC A44F5ADC
Copy CRC A44F5ADC
Copy OK
Track 7
Filename D:\DOWNLOADS\__UPLOADS\William Parker w, Raining On the Moon - Corn Meal Dance (2007) [FLAC]\07 - Prayer.wav
Pre-gap length 0:00:02.00
Peak level 98.8 %
Track quality 99.8 %
Test CRC 7D41641D
Copy CRC 7D41641D
Copy OK
Track 8
Filename D:\DOWNLOADS\__UPLOADS\William Parker w, Raining On the Moon - Corn Meal Dance (2007) [FLAC]\08 - Old Tears.wav
Pre-gap length 0:00:02.00
Peak level 98.8 %
Track quality 99.7 %
Test CRC DAE92324
Copy CRC DAE92324
Copy OK
Track 9
Filename D:\DOWNLOADS\__UPLOADS\William Parker w, Raining On the Moon - Corn Meal Dance (2007) [FLAC]\09 - Gilmore's Hat.wav
Pre-gap length 0:00:02.00
Peak level 98.8 %
Track quality 99.7 %
Test CRC FE0F6C5E
Copy CRC FE0F6C5E
Copy OK
No errors occured
End of status report

другие релизы
Приватный:
Нет (DHT включён)
Размер:
424.94 Мб (445,578,769 байт) » файлов: 17
Участники:
0 раздают, 0 качают (0 участников всего)
Внешние участники:
3 раздают, 1 качают (4 участников всего) [ Обновить ]
No seeders - write a personal message to user M0p94ok. Нет сидеров - пишите личное сообщение пользователю M0p94ok.
05:30
83
Нет комментариев. Ваш будет первым!