Поиск

(Jazz) David Murray/James Newton Quintet - David Murray/James Newton Quintet - 1996, APE (image+.cue), lossless

(Jazz) David Murray/James Newton Quintet - David Murray/James Newton Quintet - 1996, APE (image+.cue), lossless
Треклист:
David Murray/James Newton Quintet - David Murray/James Newton Quintet
Жанр: Jazz
Год выпуска диска: 1996
Производитель диска: DIW (Japan)
Аудио кодек: APE
Тип рипа: image+.cue
Битрейт аудио: lossless
Продолжительность: 55'03
Трэклист:
1. Valerie (James Newton) 7:20
2. Moon Over Sand II (Andrew Cyrille) 5:34
3. Muhammad Ali (Murray) 7:44
4. Inbetwinxt (James Newton) 12:15
5. Akhenaten (D. Murray, James Newton) 4:23
6. Blues In The Pocket (John Hicks) 7:02
7. Doni's Song (Murray) 10:45
Доп. информация:
David Murray (ts, bcl),
James Newton (fl),
John Hicks (p),
Fred Hopkins (b),
Billy Hart (d),
Andrew Cyrille (d)
 
скрытый текст
Exact Audio Copy V0.99 prebeta 4 from 23. January 2008
Отчёт EAC об извлечении, выполненном 19. ноября 2008, 9:31
David Murray / David Murray-James Newton Quintet
Дисковод: Optiarc DVD RW AD-7173A Adapter: 1 ID: 0
Режим чтения : Достоверность
Использование точного потока : Да
Отключение кэша аудио : Да
Использование указателей C2 : Нет
Коррекция смещения при чтении : 48
Способность читать области Lead-in и Lead-out : Нет
Заполнение пропущенных сэмплов тишиной : Да
Удаление блоков с тишиной в начале и конце : Нет
При вычислениях CRC использовались нулевые сэмплы : Да
Интерфейс : Встроенный Win32-интерфейс для Win NT/2000
Выходной формат : Внутренние WAV-операции
Формат сэмплов : 44.100 Гц; 16 бит; стерео
TOC извлечённого CD
Трек | Старт | Длительность | Начальный сектор | Конечный сектор
---------------------------------------------------------------------
1 | 0:00.00 | 7:19.35 | 0 | 32959
2 | 7:19.35 | 5:33.29 | 32960 | 57963
3 | 12:52.64 | 7:43.53 | 57964 | 92741
4 | 20:36.42 | 12:15.13 | 92742 | 147879
5 | 32:51.55 | 4:23.10 | 147880 | 167614
6 | 37:14.65 | 7:01.20 | 167615 | 199209
7 | 44:16.10 | 10:45.42 | 199210 | 247626
Характеристики диапазона извлечения и сообщения об ошибках
Выбранный диапазон
Имя файла I:\APE\LOSSLESS\David Murray,James Newton Quintet\David Murray - David Murray-James Newton Quintet.wav
Пиковый уровень 98.8 %
Качество диапазона 99.9 %
CRC копии CEA5B537
Копирование... OK
Ошибок не произошло
Конец отчёта
Приватный:
Нет (DHT включён)
Размер:
265.68 Мб (278,586,573 байт) » файлов: 6
Участники:
0 раздают, 0 качают (0 участников всего)
Внешние участники:
2 раздают, 1 качают (3 участников всего) [ Обновить ]
No seeders - write a personal message to user M0p94ok. Нет сидеров - пишите личное сообщение пользователю M0p94ok.
05:30
67
Нет комментариев. Ваш будет первым!