Поиск

(Cabaret) Pascal Comelade - Psicotic music'hall - 2002, FLAC (image+.cue), lossless

(Cabaret) Pascal Comelade - Psicotic music'hall - 2002, FLAC (image+.cue), lossless
Треклист:
Pascal Comelade - Psicotic music'hall - 2002, FLAC (image+.cue), lossless
Жанр: Cabaret
Год выпуска диска: 2002
Производитель диска: Translab, Paris, F.
Аудио кодек: FLAC
Тип рипа: image+.cue
Битрейт аудио: lossless
Продолжительность: 34:24
Трэклист:
01. TO BE DAMMIT ORNETTE TO BE (02.46) p. comelade
02. THE BLANK INVASION OF SCHIZOFONICS BIKINIS (03.00) p. comelade
03. BOB ATCHUM WAS A MIX-CHUM (02.03) p. comelade
04. SENSE EL RESSO DEL DRING (02.01) p. comelade
05. EL ZOOT-HORN RROTLLO ENMASCARADO (00.40) p. comelade
06. A HARD MORTADELO'S A-GONNA FILEMON FALL (01.39) p. comelade
07. DON'T TOUCH MY BLUE OYSTER SHOES (02.03) p. comelade
08. LUMPEN-HARMONY (01.55) p. comelade
09. CONTRE LE STYLE (02.27) p. comelade
10. MIEUX QUE SES SEINS, SES BAS SE TIENNENT (03.23) p. comelade
11. A GRACIA, TERRITORI SONOR (01.58) p. comelade
12. GEGENE (02.37) p. comelade
13; A FIGUERES (03.46) p. comelade
14. PSICOTIC MUSIC'HALL (03.13) p. comelade
Состав:
Pascal Comelade: vertical piano, electric organ, vibes, bass, Michelsonne
toy piano, ukulele, Kawai toy piano, accordeon, plastic guitars, mandolino
system, electric guitar, harmonium, tuba, violon, melodica.
Pep Pascual: all saxes, clarinettes, tenora, plastic trumpet, percussions.
Ludovic Roux: trompette, trombone, bugle
Philippe Dourou: percussions
Didier Banon: zoom-drums (2,9)
Enric Casasses: triangle (4)
Patrick Felices: bass (6,10)
Richie Faret: Harp (9)
Rafael Marco: Ritmicorama-guitar (14)
 
EAC log
Exact Audio Copy V0.99 prebeta 4 from 23. January 2008
Отчёт EAC об извлечении, выполненном 18. ноября 2008, 20:23
Pascal COMELADE / Psicotic music'hall
Дисковод: HL-DT-STDVDRAM GH20NS10 Adapter: 1 ID: 0
Режим чтения : Достоверность
Использование точного потока : Да
Отключение кэша аудио : Да
Использование указателей C2 : Нет
Коррекция смещения при чтении : 667
Способность читать области Lead-in и Lead-out : Нет
Заполнение пропущенных сэмплов тишиной : Да
Удаление блоков с тишиной в начале и конце : Нет
При вычислениях CRC использовались нулевые сэмплы : Да
Интерфейс : Установленный внешний ASPI-интерфейс
Выходной формат : Внутренние WAV-операции
Формат сэмплов : 44.100 Гц; 16 бит; стерео
TOC извлечённого CD
Трек | Старт | Длительность | Начальный сектор | Конечный сектор
---------------------------------------------------------------------
1 | 0:00.00 | 2:50.37 | 0 | 12786
2 | 2:50.37 | 3:03.48 | 12787 | 26559
3 | 5:54.10 | 2:07.20 | 26560 | 36104
4 | 8:01.30 | 2:04.56 | 36105 | 45460
5 | 10:06.11 | 0:43.72 | 45461 | 48757
6 | 10:50.08 | 1:43.09 | 48758 | 56491
7 | 12:33.17 | 2:06.66 | 56492 | 66007
8 | 14:40.08 | 1:58.58 | 66008 | 74915
9 | 16:38.66 | 2:30.61 | 74916 | 86226
10 | 19:09.52 | 3:27.24 | 86227 | 101775
11 | 22:37.01 | 2:01.63 | 101776 | 110913
12 | 24:38.64 | 2:41.00 | 110914 | 122988
13 | 27:19.64 | 3:49.65 | 122989 | 140228
14 | 31:09.54 | 3:14.53 | 140229 | 154831
Характеристики диапазона извлечения и сообщения об ошибках
Выбранный диапазон
Имя файла D:\Музыка\Записи\Новая папка\Pascal COMELADE - Psicotic music'hall.wav
Пиковый уровень 100.0 %
Качество диапазона 100.0 %
CRC копии 489BD0A9
Копирование... OK
Ошибок не произошло
AccurateRip: сводка
Трек 1 нет в базе данных
Трек 2 нет в базе данных
Трек 3 нет в базе данных
Трек 4 нет в базе данных
Трек 5 нет в базе данных
Трек 6 нет в базе данных
Трек 7 нет в базе данных
Трек 8 нет в базе данных
Трек 9 нет в базе данных
Трек 10 нет в базе данных
Трек 11 нет в базе данных
Трек 12 нет в базе данных
Трек 13 нет в базе данных
Трек 14 нет в базе данных
Ни одного трека нет в базе AccurateRip
Конец отчёта
Приватный:
Нет (DHT включён)
Размер:
193.39 Мб (202,781,315 байт) » файлов: 6
Участники:
0 раздают, 0 качают (0 участников всего)
Внешние участники:
7 раздают, 2 качают (9 участников всего) [ Обновить ]
No seeders - write a personal message to user M0p94ok. Нет сидеров - пишите личное сообщение пользователю M0p94ok.
05:29
62
Нет комментариев. Ваш будет первым!