Поиск

(Jazz, Free Jazz) Charles Gayle - Jazz Solo Piano - 2001, APE (image+.cue), lossless

(Jazz, Free Jazz) Charles Gayle - Jazz Solo Piano - 2001, APE (image+.cue), lossless
Треклист:
Charles Gayle - Jazz Solo Piano
Жанр: Jazz, FreeJazz
Год выпуска диска: 2001
Производитель диска: Knitting Factory Works (USA)
Аудио кодек: APE
Тип рипа: image+.cue
Битрейт аудио: lossless
Продолжительность: 55'13
Трэклист:
1.1939
2.I'll Remember April
3.Round Midnight
4.Countdown
5.Bucket Blues
6.Nadoshe
7.Afternoon in Paris
8.All the Things You Are
9.Cherokee
10.What's New
11.Softly, As in a Morning Sunrise
12.Body & Soul
13I'll Remember April II
14.Chapter Green
Доп. информация:
Charles Gayle - solo piano
 
скрытый текст
Exact Audio Copy V0.99 prebeta 4 from 23. January 2008
Отчёт EAC об извлечении, выполненном 18. ноября 2008, 17:21
Gayle Charles / Jazz Solo Piano
Дисковод: Optiarc DVD RW AD-7173A Adapter: 1 ID: 0
Режим чтения : Достоверность
Использование точного потока : Да
Отключение кэша аудио : Да
Использование указателей C2 : Нет
Коррекция смещения при чтении : 48
Способность читать области Lead-in и Lead-out : Нет
Заполнение пропущенных сэмплов тишиной : Да
Удаление блоков с тишиной в начале и конце : Нет
При вычислениях CRC использовались нулевые сэмплы : Да
Интерфейс : Встроенный Win32-интерфейс для Win NT/2000
Выходной формат : Внутренние WAV-операции
Формат сэмплов : 44.100 Гц; 16 бит; стерео
TOC извлечённого CD
Трек | Старт | Длительность | Начальный сектор | Конечный сектор
---------------------------------------------------------------------
1 | 0:00.00 | 3:29.11 | 0 | 15685
2 | 3:29.11 | 2:58.31 | 15686 | 29066
3 | 6:27.42 | 6:16.37 | 29067 | 57303
4 | 12:44.04 | 5:21.20 | 57304 | 81398
5 | 18:05.24 | 4:37.45 | 81399 | 102218
6 | 22:42.69 | 3:06.35 | 102219 | 116203
7 | 25:49.29 | 4:12.34 | 116204 | 135137
8 | 30:01.63 | 4:39.23 | 135138 | 156085
9 | 34:41.11 | 2:32.49 | 156086 | 167534
10 | 37:13.60 | 4:13.14 | 167535 | 186523
11 | 41:26.74 | 2:38.68 | 186524 | 198441
12 | 44:05.67 | 6:39.62 | 198442 | 228428
13 | 50:45.54 | 3:29.05 | 228429 | 244108
14 | 54:14.59 | 0:57.03 | 244109 | 248386
Характеристики диапазона извлечения и сообщения об ошибках
Выбранный диапазон
Имя файла I:\APE\LOSSLESS\Charles Gayle-Jazz Solo Piano\Gayle Charles - Jazz Solo Piano.wav
Пиковый уровень 100.0 %
Качество диапазона 100.0 %
CRC копии 833D98CA
Копирование... OK
Ошибок не произошло
Конец отчёта
Приватный:
Нет (DHT включён)
Размер:
179.53 Мб (188,249,950 байт) » файлов: 6
Участники:
0 раздают, 0 качают (0 участников всего)
Внешние участники:
1 раздают, 0 качают (1 участников всего) [ Обновить ]
No seeders - write a personal message to user M0p94ok. Нет сидеров - пишите личное сообщение пользователю M0p94ok.
05:28
66
Нет комментариев. Ваш будет первым!