Поиск

(jazz, avant-garde) Anthony Braxton - 19 [Solo] Compositions FLAC (image+.cue), 1988 & Wesleyan (12 Altosolos) 1992 , FLAC (tracks), lossless

Треклист:


Anthony Braxton
19 [Solo] Compositions, 1988
Wesleyan (12 Altosolos) 1992
Жанр: jazz, avant-garde
Формат: FLAC (tracks)
Битрейт аудио: lossless
Продолжительность: 56`23,01`11`44
Источник: ed2k

19 [Solo] Compositions, 1988

01 138A ballade
02 106D relationship
03 118F buzz logic
04 138B african violets
05 77G whole
06 118A intervallic
07 138C long
08 106J pointillistic
09 77C triplet diatonic
10 26F Kelvin
11 You Go To My Head
12 119I (+99E) med_dance
13 119G multiphonic
14 Round 'bout Midnight
15 99B line
16 106A quarter
17 138D ballade
18 Half Nelson
19 106C triadic spiral

 
logfile
Exact Audio Copy V0.99 prebeta 4 from 23. January 2008
EAC extraction logfile from 25. May 2011, 16:01
Anthony Braxton / 19 [Solo] Compositions, 1988
Used drive : ATAPI DVD A DH16A1L Adapter: 1 ID: 0
Read mode : Secure
Utilize accurate stream : Yes
Defeat audio cache : Yes
Make use of C2 pointers : No
Read offset correction : 6
Overread into Lead-In and Lead-Out : No
Fill up missing offset samples with silence : Yes
Delete leading and trailing silent blocks : No
Null samples used in CRC calculations : Yes
Used interface : Native Win32 interface for Win NT & 2000
Used output format : Internal WAV Routines
Sample format : 44.100 Hz; 16 Bit; Stereo
TOC of the extracted CD
Track | Start | Length | Start sector | End sector
---------------------------------------------------------
1 | 0:00.32 | 2:57.40 | 32 | 13346
2 | 2:57.72 | 3:25.23 | 13347 | 28744
3 | 6:23.20 | 2:46.65 | 28745 | 41259
4 | 9:10.10 | 2:26.70 | 41260 | 52279
5 | 11:37.05 | 3:14.32 | 52280 | 66861
6 | 14:51.37 | 3:17.48 | 66862 | 81684
7 | 18:09.10 | 2:25.35 | 81685 | 92594
8 | 20:34.45 | 2:40.62 | 92595 | 104656
9 | 23:15.32 | 3:05.43 | 104657 | 118574
10 | 26:21.00 | 1:57.55 | 118575 | 127404
11 | 28:18.55 | 4:17.47 | 127405 | 146726
12 | 32:36.27 | 1:47.25 | 146727 | 154776
13 | 34:23.52 | 1:58.53 | 154777 | 163679
14 | 36:22.30 | 2:44.12 | 163680 | 175991
15 | 39:06.42 | 3:47.53 | 175992 | 193069
16 | 42:54.20 | 2:56.35 | 193070 | 206304
17 | 45:50.55 | 2:17.40 | 206305 | 216619
18 | 48:08.20 | 5:10.32 | 216620 | 239901
19 | 53:18.52 | 3:04.68 | 239902 | 253769
Range status and errors
Selected range
Filename C:\avaxhome\Anthony Braxton - 19 [Solo] Compositions, 1988.wav
Peak level 98.5 %
Range quality 100.0 %
Copy CRC 1B1528BA
Copy OK
No errors occurred
AccurateRip summary
Track 1 accurately ripped (confidence 2) [252A1F27]
Track 2 accurately ripped (confidence 2) [E5ABABD7]
Track 3 accurately ripped (confidence 2) [B5C94A56]
Track 4 accurately ripped (confidence 2) [E64AA5DD]
Track 5 accurately ripped (confidence 2) [720F43A1]
Track 6 accurately ripped (confidence 2) [476FA0A8]
Track 7 accurately ripped (confidence 2) [C18937A4]
Track 8 accurately ripped (confidence 2) [C7B72541]
Track 9 accurately ripped (confidence 2) [058C033E]
Track 10 accurately ripped (confidence 2) [03AA051B]
Track 11 accurately ripped (confidence 2) [90CD587E]
Track 12 accurately ripped (confidence 2) [3DAF3613]
Track 13 accurately ripped (confidence 2) [B6C92129]
Track 14 accurately ripped (confidence 2) [BAD73D7E]
Track 15 accurately ripped (confidence 2) [50570C81]
Track 16 accurately ripped (confidence 2) [1451B371]
Track 17 accurately ripped (confidence 2) [88D22132]
Track 18 accurately ripped (confidence 2) [7CC97163]
Track 19 accurately ripped (confidence 2) [9DBBCCCF]
All tracks accurately ripped
End of status report


Wesleyan (12 Altosolos) 1992

01 - No 170i
02 - No 106d (+170b)
03 - No 170a
04 - Charlie's Wig
05 - No 170c (+77d+99f)
06 - No 170f (+138c+106g+119d+99d+119f)
07 - I'm Gettin' Sentimental Over You
08 - No 170g
09 - No 106j (+106m)
10 - No 170h
11 - Just Friends
12 - No 118f

 
logfile
EAC extraction logfile from 6. December 2006, 4:24 for CD
Anthony Braxton / Wesleyan (12 Altosolos) 1992
Used drive : HL-DT-STDVDRRW GSA-2164D Adapter: 5 ID: 0
Read mode : Secure with NO C2, accurate stream, disable cache
Read offset correction : 102
Overread into Lead-In and Lead-Out : No
Used output format : Internal WAV Routines
44.100 Hz; 16 Bit; Stereo
Other options :
Fill up missing offset samples with silence : Yes
Delete leading and trailing silent blocks : No
Installed external ASPI interface
Track 1
Filename H:\EacConversions\Anthony Braxton - Wesleyan (12 Altosolos)1992 (1993) [FLAC]\01 - No 170i.wav
Pre-gap length 0:00:02.00
Peak level 48.1 %
Track quality 100.0 %
Test CRC 0DA02F1E
Copy CRC 0DA02F1E
Copy OK
Track 2
Filename H:\EacConversions\Anthony Braxton - Wesleyan (12 Altosolos)1992 (1993) [FLAC]\02 - No 106d (+170b).wav
Peak level 91.7 %
Track quality 100.0 %
Test CRC F7B77AB2
Copy CRC F7B77AB2
Copy OK
Track 3
Filename H:\EacConversions\Anthony Braxton - Wesleyan (12 Altosolos)1992 (1993) [FLAC]\03 - No 170a.wav
Peak level 56.2 %
Track quality 100.0 %
Test CRC 71395EED
Copy CRC 71395EED
Copy OK
Track 4
Filename H:\EacConversions\Anthony Braxton - Wesleyan (12 Altosolos)1992 (1993) [FLAC]\04 - Charlie's Wig.wav
Peak level 76.6 %
Track quality 100.0 %
Test CRC 489ECBAA
Copy CRC 489ECBAA
Copy OK
Track 5
Filename H:\EacConversions\Anthony Braxton - Wesleyan (12 Altosolos)1992 (1993) [FLAC]\05 - No 170c (+77d+99f).wav
Peak level 77.9 %
Track quality 100.0 %
Test CRC 73792DF0
Copy CRC 73792DF0
Copy OK
Track 6
Filename H:\EacConversions\Anthony Braxton - Wesleyan (12 Altosolos)1992 (1993) [FLAC]\06 - No 170f (+138c+106g+119d+99d+119f).wav
Peak level 91.3 %
Track quality 100.0 %
Test CRC 0A543708
Copy CRC 0A543708
Copy OK
Track 7
Filename H:\EacConversions\Anthony Braxton - Wesleyan (12 Altosolos)1992 (1993) [FLAC]\07 - I'm Gettin' Sentimental Over You.wav
Peak level 51.8 %
Track quality 100.0 %
Test CRC C014A362
Copy CRC C014A362
Copy OK
Track 8
Filename H:\EacConversions\Anthony Braxton - Wesleyan (12 Altosolos)1992 (1993) [FLAC]\08 - No 170g.wav
Peak level 91.5 %
Track quality 100.0 %
Test CRC 779C11E6
Copy CRC 779C11E6
Copy OK
Track 9
Filename H:\EacConversions\Anthony Braxton - Wesleyan (12 Altosolos)1992 (1993) [FLAC]\09 - No 106j (+106m).wav
Peak level 91.9 %
Track quality 100.0 %
Test CRC A2DE3E7E
Copy CRC A2DE3E7E
Copy OK
Track 10
Filename H:\EacConversions\Anthony Braxton - Wesleyan (12 Altosolos)1992 (1993) [FLAC]\10 - No 170h.wav
Peak level 35.9 %
Track quality 100.0 %
Test CRC AD27AF42
Copy CRC AD27AF42
Copy OK
Track 11
Filename H:\EacConversions\Anthony Braxton - Wesleyan (12 Altosolos)1992 (1993) [FLAC]\11 - Just Friends.wav
Peak level 65.1 %
Track quality 100.0 %
Test CRC 03827F27
Copy CRC 03827F27
Copy OK
Track 12
Filename H:\EacConversions\Anthony Braxton - Wesleyan (12 Altosolos)1992 (1993) [FLAC]\12 - No 118f.wav
Peak level 75.8 %
Track quality 100.0 %
Test CRC B75AFFED
Copy CRC B75AFFED
Copy OK
No errors occured
End of status report


другие релизы
Приватный:
Нет (DHT включён)
Размер:
553.83 Мб (580,737,451 байт) » файлов: 24
Участники:
0 раздают, 0 качают (0 участников всего)
Внешние участники:
2 раздают, 1 качают (3 участников всего) [ Обновить ]
No seeders - write a personal message to user M0p94ok. Нет сидеров - пишите личное сообщение пользователю M0p94ok.
05:28
91
Нет комментариев. Ваш будет первым!