Поиск

(jazz , Tzadik) Koby Israelite - Dance of the Idiots - 2003, FLAC (image+.cue), lossless

(jazz , Tzadik) Koby Israelite - Dance of the Idiots - 2003, FLAC (image+.cue), lossless
Треклист:
Koby Israelite - Dance of the Idiots - 2003, FLAC (image+.cue), lossless
Жанр: jazz , Tzadik
Год выпуска диска: 2003
Производитель диска: Tzadik Records
Аудио кодек: FLAC
Тип рипа: image+.cue
Битрейт аудио: lossless
Продолжительность: 53:48
Трэклист:
1. Saints and dates (Koby Israelite) 3:37
2. Toledo five four (trad., Ladino) 4:33
3. If that makes any sense (Koby Israelite) 5:46
4. Diego (trad. Romanian) 1:51
5. Battersea blues (Koby Israelite) 7:59
6. I used to be cool (Koby Israelite) 5:15
7. In the meantime (Koby Israelite) 6:20
8. Wanna Dance (Koby Israelite) 5:36
9. Truah (Koby Israelite, Igal Foni) 4:30
10. 2nd of Tamuz (Koby Israelite) 3:35
11. Dance of the Idiots (Koby Israelite) 2:47
12. Happylouge (Koby Israelite) 1:44
Состав:
Koby Israelite: drums, vocals, electric guitar, pocket clarinet, flutes, piano, accordion, keyboard,melodica, percussion, programming
Levi Levin: vocals
Marcel Mamaliga: violin
Ofir Gal: guitar, rhythm guitar
Stefan Redtenbacher: bass guitar
Gilad Atzmon: clarinet, baritone and tenor saxophones
Sid Gauld: trumpet, flugel horn
Reut Regev: trombone
Howard Davies: didgeridoo
Yaron Stavi: upright bass, electric upright bass
Marin: accordion
 
EAC log
Exact Audio Copy V0.99 prebeta 4 from 23. January 2008
Отчёт EAC об извлечении, выполненном 11. ноября 2008, 14:28
Koby Israelite / Dance Of The Idiots
Дисковод: HL-DT-STDVDRAM GH20NS10 Adapter: 1 ID: 0
Режим чтения : Достоверность
Использование точного потока : Да
Отключение кэша аудио : Да
Использование указателей C2 : Нет
Коррекция смещения при чтении : 667
Способность читать области Lead-in и Lead-out : Нет
Заполнение пропущенных сэмплов тишиной : Да
Удаление блоков с тишиной в начале и конце : Нет
При вычислениях CRC использовались нулевые сэмплы : Да
Интерфейс : Установленный внешний ASPI-интерфейс
Выходной формат : Внутренние WAV-операции
Формат сэмплов : 44.100 Гц; 16 бит; стерео
TOC извлечённого CD
Трек | Старт | Длительность | Начальный сектор | Конечный сектор
---------------------------------------------------------------------
1 | 0:00.00 | 3:37.60 | 0 | 16334
2 | 3:37.60 | 4:34.35 | 16335 | 36919
3 | 8:12.20 | 5:47.23 | 36920 | 62967
4 | 13:59.43 | 1:51.41 | 62968 | 71333
5 | 15:51.09 | 8:00.27 | 71334 | 107360
6 | 23:51.36 | 5:17.00 | 107361 | 131135
7 | 29:08.36 | 6:21.59 | 131136 | 159769
8 | 35:30.20 | 5:36.27 | 159770 | 184996
9 | 41:06.47 | 4:31.56 | 184997 | 205377
10 | 45:38.28 | 3:36.39 | 205378 | 221616
11 | 49:14.67 | 2:48.48 | 221617 | 234264
12 | 52:03.40 | 1:44.18 | 234265 | 242082
Характеристики диапазона извлечения и сообщения об ошибках
Выбранный диапазон
Имя файла D:\Музыка\Записи\Новая папка\Koby Israelite - Dance Of The Idiots.wav
Пиковый уровень 100.0 %
Качество диапазона 100.0 %
CRC копии F12A47FC
Копирование... OK
Ошибок не произошло
Конец отчёта
Приватный:
Нет (DHT включён)
Размер:
323.07 Мб (338,767,461 байт) » файлов: 3
Участники:
0 раздают, 0 качают (0 участников всего)
Внешние участники:
3 раздают, 1 качают (4 участников всего) [ Обновить ]
No seeders - write a personal message to user M0p94ok. Нет сидеров - пишите личное сообщение пользователю M0p94ok.
05:27
55
Нет комментариев. Ваш будет первым!