Поиск

(jazz) Gianluigi Trovesi Octet - Les Hommes Armes - 1996, FLAC (image+.cue), lossless

(jazz) Gianluigi Trovesi Octet - Les Hommes Armes - 1996, FLAC (image+.cue), lossless
Треклист:
Gianluigi Trovesi Octet - Les Hommes Armes- 1996, FLAC (image+.cue), lossless
Жанр: jazz
Год выпуска диска: 1996
Производитель диска: Soul Note , Italy
Аудио кодек: FLAC
Тип рипа: image+.cue
Битрейт аудио: lossless
Продолжительность: 51:21
Трэклист:
1. Tango - (2*35")
2. Ambulat Hie Armatus Homo - (l6'03")
2.1 Introito - (2'57")
2.2 Cantus I - (4'24")
2.3 Armatus Homo - (2'04")
2.4 Cantus II - (3'20") 2.5Triadi-(l'02")
2.6 Kyrie dalla Messa "L' Homme Arme" - (1
2.7 L' Homme Arme - (107")
3. Tengo - (Г43")
4. Mood Indigo - (3'17") (Arranged by G. Trovesi)
5. Tingo - (0'32")
6. Dance For A King - (7'29") (Dedicated to EricDolpby)
7. Tongo - (0'59")
8. On Va Marcher - (16'51")
8.1 Prelude - (1'46")
8.2 Petite Marche - (0'45")
8.3 Marche Des Nuages - (6'23")
8.4 Trois Petites "Valeureuses" - (2'43")
8.5 Freres En Marche - (3'18")
8.6 Valeureux Liegeois - (Г50") (Arranged by G. Trovesi)
9. Г Ungo - (1'29")
(Dedicated to "Frau Blucher" from the movie "Frankeslein Junior" of Mel Brooks)
Состав:
Pino Minafra - trumpet, prepared trumpet, flugelhorn, didjeridoo, voice and noise
Gianluigi Trovesi - alto saxophone, Eb clarinet (piccolo), alto clarinet, bass clarinet
Rodolfo Migliardi - trombone, tuba
Roberto Bonati - acoustic bass
Marco Micheli - acoustic and electric bass
Marco Remondini - cello, alto sax
Fulvio Maras - percussion
Vittorio Marinoni - drums
All compositions by Gianluigi Troves
 
EAC log
Exact Audio Copy V0.99 prebeta 4 from 23. January 2008
Отчёт EAC об извлечении, выполненном 28. октября 2008, 15:13
Gianluigi Trovesi Octet / Les Hommes Armйs
Дисковод: HL-DT-STDVDRAM GH20NS10 Adapter: 1 ID: 0
Режим чтения : Достоверность
Использование точного потока : Да
Отключение кэша аудио : Да
Использование указателей C2 : Нет
Коррекция смещения при чтении : 667
Способность читать области Lead-in и Lead-out : Нет
Заполнение пропущенных сэмплов тишиной : Да
Удаление блоков с тишиной в начале и конце : Нет
При вычислениях CRC использовались нулевые сэмплы : Да
Интерфейс : Установленный внешний ASPI-интерфейс
Выходной формат : Внутренние WAV-операции
Формат сэмплов : 44.100 Гц; 16 бит; стерео
TOC извлечённого CD
Трек | Старт | Длительность | Начальный сектор | Конечный сектор
---------------------------------------------------------------------
1 | 0:00.00 | 2:38.42 | 0 | 11891
2 | 2:38.42 | 16:03.45 | 11892 | 84161
3 | 18:42.12 | 1:46.55 | 84162 | 92166
4 | 20:28.67 | 3:20.70 | 92167 | 107236
5 | 23:49.62 | 0:35.67 | 107237 | 109928
6 | 24:25.54 | 7:32.51 | 109929 | 143879
7 | 31:58.30 | 1:02.52 | 143880 | 148581
8 | 33:01.07 | 16:51.05 | 148582 | 224411
9 | 49:52.12 | 1:29.18 | 224412 | 231104
Характеристики диапазона извлечения и сообщения об ошибках
Выбранный диапазон
Имя файла D:\Музыка\Записи\Новая папка\Gianluigi Trovesi Octet - Les Hommes Armйs.wav
Пиковый уровень 100.0 %
Качество диапазона 100.0 %
CRC копии 525C6F03
Копирование... OK
Ошибок не произошло
Конец отчёта
Приватный:
Нет (DHT включён)
Размер:
304.72 Мб (319,524,716 байт) » файлов: 5
Участники:
0 раздают, 0 качают (0 участников всего)
Внешние участники:
2 раздают, 1 качают (3 участников всего) [ Обновить ]
No seeders - write a personal message to user M0p94ok. Нет сидеров - пишите личное сообщение пользователю M0p94ok.
05:26
95
Нет комментариев. Ваш будет первым!