Поиск

(jazz) World Saxophone Quartet - Breath of Life - 1994, APE (image+.cue), lossless

(jazz) World Saxophone Quartet - Breath of Life - 1994, APE (image+.cue), lossless
Треклист:
World Saxophone Quartet - Breath of Life
Жанр: jazz
Год выпуска диска: 1994
Производитель диска: Electra (USA)
Аудио кодек: APE
Тип рипа: image+.cue
Битрейт аудио: lossless
Продолжительность: 45'46
Трэклист:
1. Jest a Little
2. Cairo Blues
3. Suffering With the Blues
4. You Don't Know Me
5. Picasso
6. Song for Camille
7. Breath of Life
8. Deb
Доп. информация:
Hamiet Bluiett
Arthur Blythe
Oliver Lake
David Murraywith
Fontella Bass-vocals
Donald Smith-piano
Amina Claudine Myers-piano,organ
Tarik Shan,Fred Hopkins-bass
Ronnie Burrage,Gene Lake-drums
 
скрытый текст
Exact Audio Copy V0.99 prebeta 4 from 23. January 2008
EAC extraction logfile from 17. November 2008, 17:45
World Saxophone Quartet / Breath of Life
Used drive : Optiarc DVD RW AD-7173A Adapter: 1 ID: 0
Read mode : Secure
Utilize accurate stream : Yes
Defeat audio cache : Yes
Make use of C2 pointers : No
Read offset correction : 48
Overread into Lead-In and Lead-Out : No
Fill up missing offset samples with silence : Yes
Delete leading and trailing silent blocks : No
Null samples used in CRC calculations : Yes
Used interface : Native Win32 interface for Win NT & 2000
Used output format : Internal WAV Routines
Sample format : 44.100 Hz; 16 Bit; Stereo
TOC of the extracted CD
Track | Start | Length | Start sector | End sector
---------------------------------------------------------
1 | 0:00.32 | 9:14.00 | 32 | 41581
2 | 9:14.32 | 1:11.65 | 41582 | 46971
3 | 10:26.22 | 5:39.33 | 46972 | 72429
4 | 16:05.55 | 6:35.57 | 72430 | 102111
5 | 22:41.37 | 5:52.65 | 102112 | 128576
6 | 28:34.27 | 7:42.35 | 128577 | 163261
7 | 36:16.62 | 4:43.30 | 163262 | 184516
8 | 41:00.17 | 4:43.58 | 184517 | 205799
Range status and errors
Selected range
Filename I:\APE\LOSSLESS\World Saxophone Quartet - Breath of Life\World Saxophone Quartet - Breath of Life.wav
Peak level 100.0 %
Range quality 100.0 %
Copy CRC EDD6B429
Copy OK
No errors occurred
End of status report
Приватный:
Нет (DHT включён)
Размер:
276.43 Мб (289,861,770 байт) » файлов: 9
Участники:
0 раздают, 0 качают (0 участников всего)
Внешние участники:
5 раздают, 1 качают (6 участников всего) [ Обновить ]
No seeders - write a personal message to user M0p94ok. Нет сидеров - пишите личное сообщение пользователю M0p94ok.
05:26
68
Нет комментариев. Ваш будет первым!