Поиск

(Jazz) William Parker - The Inside Songs of Curtis Mayfield - 2007, FLAC (tracks+.cue), lossless

Треклист:
William Parker - The inside songs of Curtis Mayfield
Жанр: Jazz
Год выпуска : 2007
Страна: USA
Аудио кодек: FLAC
Тип рипа: tracks+.cue
Битрейт аудио: lossless
Продолжительность: 01:14:04
Признательность за рип: jazzkazan

1. The Makings of you (2:30)
2. People get ready (12:02)
3. Inside song 1 (9:43)
4. When people are darker than blue (20:53)
5. Spoken introduction (3:12)
6. Think (15:20)
7. Freddie is dead (10:24)
 
ЕАС
EAC extraction logfile from 4. February 2008, 17:00 for CD
William Parker / The inside songs of Curtis Mayfield
Used drive : HL-DT-STDVDRAM GSA-H10N Adapter: 0 ID: 0
Read mode : Secure with NO C2, accurate stream, disable cache
Read offset correction : 667
Overread into Lead-In and Lead-Out : No
Used output format : C:\Program Files\FLAC\flac.exe (User Defined Encoder)
128 kBit/s
Additional command line options : -8 -V -T "ARTIST=%a" -T "TITLE=%t" -T "ALBUM=%g" -T "DATE=%y" -T "TRACKNUMBER=%n" -T "GENRE=%m" -T "COMMENT=EAC FLAC -8" %s
Other options :
Fill up missing offset samples with silence : Yes
Delete leading and trailing silent blocks : No
Native Win32 interface for Win NT & 2000
Track 1
Filename D:\Torrents\William Parker - The inside songs of Curtis Mayfield (2007) [flac}\01 - The Makings of you.wav
Pre-gap length 0:00:02.00
Peak level 85.4 %
Track quality 100.0 %
Test CRC F69460A2
Copy CRC F69460A2
Copy OK
Track 2
Filename D:\Torrents\William Parker - The inside songs of Curtis Mayfield (2007) [flac}\02 - People get ready.wav
Peak level 99.4 %
Track quality 100.0 %
Test CRC E76B1D9F
Copy CRC E76B1D9F
Copy OK
Track 3
Filename D:\Torrents\William Parker - The inside songs of Curtis Mayfield (2007) [flac}\03 - Inside song 1.wav
Peak level 99.4 %
Track quality 100.0 %
Test CRC 7185ECDD
Copy CRC 7185ECDD
Copy OK
Track 4
Filename D:\Torrents\William Parker - The inside songs of Curtis Mayfield (2007) [flac}\04 - When people are darker than blue.wav
Peak level 99.4 %
Track quality 100.0 %
Test CRC EEE45DA0
Copy CRC EEE45DA0
Copy OK
Track 5
Filename D:\Torrents\William Parker - The inside songs of Curtis Mayfield (2007) [flac}\05 - Spoken introduction.wav
Peak level 99.4 %
Track quality 100.0 %
Test CRC ACD2FAE1
Copy CRC ACD2FAE1
Copy OK
Track 6
Filename D:\Torrents\William Parker - The inside songs of Curtis Mayfield (2007) [flac}\06 - Think.wav
Peak level 99.4 %
Track quality 100.0 %
Test CRC 1894B79D
Copy CRC 1894B79D
Copy OK
Track 7
Filename D:\Torrents\William Parker - The inside songs of Curtis Mayfield (2007) [flac}\07 - Freddie is dead.wav
Peak level 99.4 %
Track quality 100.0 %
Test CRC D61B9966
Copy CRC D61B9966
Copy OK
No errors occured
End of status report
Приватный:
Нет (DHT включён)
Размер:
491.51 Мб (515,388,480 байт) » файлов: 12
Участники:
0 раздают, 0 качают (0 участников всего)
Внешние участники:
2 раздают, 1 качают (3 участников всего) [ Обновить ]
No seeders - write a personal message to user M0p94ok. Нет сидеров - пишите личное сообщение пользователю M0p94ok.
04:06
44
Нет комментариев. Ваш будет первым!