Поиск

(Jazz) William Parker - Scrapbook - 2003, FLAC (tracks+.cue), lossless

(Jazz) William Parker - Scrapbook - 2003, FLAC (tracks+.cue), lossless
Треклист:
William Parker - Scrapbook
Жанр: Jazz
Год выпуска : 2003
Страна: USA
Аудио кодек: FLAC
Тип рипа: tracks+.cue
Битрейт аудио: lossless
Продолжительность: 00:40:38
Признательность за рип: jazzkazan

1. Scrapbook (8:04)
2. Sunday Morning Church (11:35)
3. Singing Spirits (5:02)
4. Dust on a White Shirt (5:08)
5. Urban (7:26)
6. Holiday for Flowers (3:23)
 
ЕАС
EAC extraction logfile from 27. June 2008, 19:06 for CD
William Parker Violin Trio / Scrapbook
Used drive : HL-DT-STDVDRAM GSA-H10N Adapter: 0 ID: 0
Read mode : Secure with NO C2, accurate stream, disable cache
Read offset correction : 667
Overread into Lead-In and Lead-Out : No
Used output format : C:\Program Files\FLAC\flac.exe (User Defined Encoder)
128 kBit/s
Additional command line options : -8 -V -T "ARTIST=%a" -T "TITLE=%t" -T "ALBUM=%g" -T "DATE=%y" -T "TRACKNUMBER=%n" -T "GENRE=%m" -T "COMMENT=EAC FLAC -8" %s
Other options :
Fill up missing offset samples with silence : Yes
Delete leading and trailing silent blocks : No
Native Win32 interface for Win NT & 2000
Track 1
Filename D:\Torrents\William Parker - Srapbook (2003) [FLAC]\01 - Scrapbook.wav
Pre-gap length 0:00:02.00
Peak level 98.9 %
Track quality 100.0 %
Test CRC 695F3DB3
Copy CRC 695F3DB3
Copy OK
Track 2
Filename D:\Torrents\William Parker - Srapbook (2003) [FLAC]\02 - Sunday Morning Church.wav
Pre-gap length 0:00:02.00
Peak level 98.9 %
Track quality 100.0 %
Test CRC BDC19D07
Copy CRC BDC19D07
Copy OK
Track 3
Filename D:\Torrents\William Parker - Srapbook (2003) [FLAC]\03 - Singing Spirits.wav
Pre-gap length 0:00:02.00
Peak level 98.9 %
Track quality 100.0 %
Test CRC 8DA6E63B
Copy CRC 8DA6E63B
Copy OK
Track 4
Filename D:\Torrents\William Parker - Srapbook (2003) [FLAC]\04 - Dust on a White Shirt.wav
Pre-gap length 0:00:02.00
Peak level 98.9 %
Track quality 100.0 %
Test CRC 0C44BBAB
Copy CRC 0C44BBAB
Copy OK
Track 5
Filename D:\Torrents\William Parker - Srapbook (2003) [FLAC]\05 - Urban.wav
Pre-gap length 0:00:02.00
Peak level 98.9 %
Track quality 100.0 %
Test CRC ACE3E3D9
Copy CRC ACE3E3D9
Copy OK
Track 6
Filename D:\Torrents\William Parker - Srapbook (2003) [FLAC]\06 - Holiday for Flowers.wav
Pre-gap length 0:00:02.00
Peak level 98.8 %
Track quality 100.0 %
Test CRC 22323543
Copy CRC 22323543
Copy OK
No errors occured
End of status report
Приватный:
Нет (DHT включён)
Размер:
261.51 Мб (274,210,421 байт) » файлов: 11
Участники:
0 раздают, 0 качают (0 участников всего)
Внешние участники:
3 раздают, 1 качают (4 участников всего) [ Обновить ]
No seeders - write a personal message to user M0p94ok. Нет сидеров - пишите личное сообщение пользователю M0p94ok.
04:06
64
Нет комментариев. Ваш будет первым!