Поиск

(Avantgarde / Fusion / Minimal / Ambient) Arthur Russell 2006 First Thought Best Thought 2CD (1973-1981 sessions), FLAC (image+.cue), lossless

(Avantgarde / Fusion / Minimal / Ambient) Arthur Russell 2006 First Thought Best Thought 2CD (1973-1981 sessions), FLAC (image+.cue), lossless
Треклист:
Arthur Russell - First Thought Best Thought 2CD (1973-1981 sessions)
Жанр: Avantgarde / Fusion / Minimal / Ambient
Год выпуска диска: 2006
Производитель диска: UK (Rough Trade)
Аудио кодек: FLAC
Тип рипа: image+.cue
Битрейт аудио: lossless
Продолжительность: 72:46 + 54:23
Трэклист:
1-01 Instrumentals - 1974 Volume 1 (5:19)
1-02 Instrumentals - 1974 Volume 1 (1:56)
1-03 Instrumentals - 1974 Volume 1 (1:11)
1-04 Instrumentals - 1974 Volume 1 (5:43)
1-05 Instrumentals - 1974 Volume 1 (2:38)
1-06 Instrumentals - 1974 Volume 1 (2:11)
1-07 Instrumentals - 1974 Volume 1 (2:32)
1-08 Instrumentals - 1974 Volume 1 (0:57)
1-09 Instrumentals - 1974 Volume 1 (2:02)
1-10 Instrumentals - 1974 Volume 1 (0:30)
1-11 Instrumentals - 1974 Volume 2, Part I (6:33)
1-12 Instrumentals - 1974 Volume 2, Part II (9:57)
1-13 Instrumentals - 1974 Volume 2, Part III (6:45)
1-14 Instrumentals - 1974 Volume 2, Part III (5:18)
1-15 Instrumentals - 1974 Volume 2, Part III (2:36)
1-16 Reach One (With Two Fender Rhodes) (16:30) (Fender Rhodes - Beth Anderson, Dan Salmon)
2-01 Tower Of Meaning (2:03)
2-02 Tower Of Meaning (6:01)
2-03 Tower Of Meaning (2:05)
2-04 Tower Of Meaning (2:49)
2-05 Tower Of Meaning (6:22)
2-06 Tower Of Meaning (3:37)
2-07 Tower Of Meaning (21:39)
2-08 Sketch For The Face Of Helen (9:43) (Keyboards, Noise [Tone Generator, Tugboat] - Arthur Russell)
Band:
Cello [Electric Cello] - Arthur Russell (tracks: 1-1 to 1-11)
Bass - Ernie Brooks (tracks: 1-1 to 1-11)
Conductor - Julius Eastman (tracks: 2-1 to 2-7)
Drums - Andy Paley (tracks: 1-1 to 1-10)
Flute - Rhys Chatham (tracks: 1-1 to 1-10)
Flute, Clarinet, Saxophone [Alto, Soprano] - Jon Gibson (2) (tracks: 1-1 to 1-11)
Guitar [Electric Guitar] - Jon Sholle (tracks: 1-1 to 1-11)
Keyboards - Peter Gordon (tracks: 1-1 to 1-10)
Percussion - David Van Tieghem (tracks: 1-1 to 1-11)
Trombone - Garrett List (tracks: 1-1 to 1-10)
Producer, Written-By - Arthur Russell
Compiled By - Ernie Brooks , Steve Knutson
Featuring [Digital Transfer] - Josh Clark
Mastered By - Ray Janos
Доп. информация:
Цитата:
Артур Рассел (1952-1992) - человек загадка. Чем больше о нем узнаешь, тем больше запутываешься. С одной стороны он был убежденным авангардистом, исполняя произведения в The Kitchen и ассоциируясь с такими людьми как Ali Akbar Kaan, Rhys Chatham, Philip Glass, Phill Niblock и Alan Ginsberg. С другой стороны он был не менее убежденным поклонником disco выступая в The Gallery совместно с Larry Levan, Nicky Siano, Francois K, Steve D’Aquisito и Walter Gibbons. Но и это еще не все! Артур также участвовал в punk/post-punk сцене Нью-Йорка. Жил в одном доме с Richard Hell, работал совместно с David Byrne и практически был участником Talking Heads. Но прежде чем стать символом (в ретроспективе) музыкальной свободы в Нью-Йорке '80х с последующей смертью от СПИДа, Артур Рассел был просто начинающих фигурой в музыкальном мире города.
Интересный альбом, особенно первый диск. Минимализмом мелодий напоминает Moondog, но с богатыми аранжировками. Второй же диск - эмбиент из электро-виолончели.
Рипы с CD-R.
 
Отчеты EAC
CD1:
Код:
Exact Audio Copy V0.99 prebeta 3 from 28. July 2007
EAC extraction logfile from 28. September 2008, 1:27
Arthur Russell / First Thought Best Thought (1 of 2)
Used drive  : ASUS    DRW-1814BL   Adapter: 0  ID: 1
Read mode               : Secure
Utilize accurate stream : Yes
Defeat audio cache      : Yes
Make use of C2 pointers : No
Read offset correction                      : 6
Overread into Lead-In and Lead-Out          : No
Fill up missing offset samples with silence : Yes
Delete leading and trailing silent blocks   : No
Null samples used in CRC calculations       : Yes
Used interface                              : Installed external ASPI interface
Used output format : Internal WAV Routines
Sample format      : 44.100 Hz; 16 Bit; Stereo
TOC of the extracted CD
     Track |   Start  |  Length  | Start sector | End sector
    ---------------------------------------------------------
        1  |  0:00.00 |  5:19.59 |         0    |    23983
        2  |  5:19.59 |  1:56.10 |     23984    |    32693
        3  |  7:15.69 |  1:11.43 |     32694    |    38061
        4  |  8:27.37 |  5:43.06 |     38062    |    63792
        5  | 14:10.43 |  2:38.67 |     63793    |    75709
        6  | 16:49.35 |  2:11.44 |     75710    |    85578
        7  | 19:01.04 |  2:32.53 |     85579    |    97031
        8  | 21:33.57 |  0:57.53 |     97032    |   101359
        9  | 22:31.35 |  2:02.39 |    101360    |   110548
       10  | 24:33.74 |  0:30.08 |    110549    |   112806
       11  | 25:04.07 |  6:33.25 |    112807    |   142306
       12  | 31:37.32 |  9:57.40 |    142307    |   187121
       13  | 41:34.72 |  6:45.48 |    187122    |   217544
       14  | 48:20.45 |  5:18.35 |    217545    |   241429
       15  | 53:39.05 |  2:36.57 |    241430    |   253186
       16  | 56:15.62 | 16:30.12 |    253187    |   327448
Range status and errors
Selected range
     Filename E:\ape\!torrent\release\flac\Arthur Russell 2006 First Thought Best Thought 2CD\CDImage1.wav
     Peak level 100.0 %
     Range quality 99.9 %
     Copy CRC 16128A12
     Copy OK
No errors occurred
AccurateRip summary
Track  1  cannot be verified as accurate (confidence 2)  [F072B9A0], AccurateRip returned [DE0DE3EF]
Track  2  accurately ripped (confidence 2)  [75FD31C7]
Track  3  accurately ripped (confidence 2)  [F466D9F1]
Track  4  accurately ripped (confidence 2)  [15D5EA24]
Track  5  accurately ripped (confidence 2)  [FED6F9BD]
Track  6  accurately ripped (confidence 2)  [DDBF1F82]
Track  7  accurately ripped (confidence 2)  [83DA2BE5]
Track  8  accurately ripped (confidence 2)  [0B83DEF9]
Track  9  accurately ripped (confidence 2)  [D5B86135]
Track 10  accurately ripped (confidence 2)  [5344EEC0]
Track 11  accurately ripped (confidence 2)  [3B467799]
Track 12  accurately ripped (confidence 2)  [67ADAD55]
Track 13  accurately ripped (confidence 2)  [CA0FF5AA]
Track 14  accurately ripped (confidence 2)  [AEC191C6]
Track 15  accurately ripped (confidence 2)  [8FBF1BE9]
Track 16  accurately ripped (confidence 2)  [4D2CE6DB]
15 track(s) accurately ripped
1 track(s) could not be verified as accurate
Some tracks could not be verified as accurate
End of status report

CD2:
Код:
Exact Audio Copy V0.99 prebeta 3 from 28. July 2007
EAC extraction logfile from 28. September 2008, 1:38
Arthur Russell / First Thought Best Thought
Used drive  : ASUS    DRW-1814BL   Adapter: 0  ID: 1
Read mode               : Secure
Utilize accurate stream : Yes
Defeat audio cache      : Yes
Make use of C2 pointers : No
Read offset correction                      : 6
Overread into Lead-In and Lead-Out          : No
Fill up missing offset samples with silence : Yes
Delete leading and trailing silent blocks   : No
Null samples used in CRC calculations       : Yes
Used interface                              : Installed external ASPI interface
Used output format : Internal WAV Routines
Sample format      : 44.100 Hz; 16 Bit; Stereo
TOC of the extracted CD
     Track |   Start  |  Length  | Start sector | End sector
    ---------------------------------------------------------
        1  |  0:00.00 |  2:03.55 |         0    |     9279
        2  |  2:03.55 |  6:01.72 |      9280    |    36426
        3  |  8:05.52 |  2:05.09 |     36427    |    45810
        4  | 10:10.61 |  2:49.68 |     45811    |    58553
        5  | 13:00.54 |  6:22.32 |     58554    |    87235
        6  | 19:23.11 |  3:37.21 |     87236    |   103531
        7  | 23:00.32 | 21:39.17 |    103532    |   200973
        8  | 44:39.49 |  9:43.56 |    200974    |   244754
Range status and errors
Selected range
     Filename E:\ape\!torrent\release\flac\Arthur Russell 2006 First Thought Best Thought 2CD\CDImage2.wav
     Peak level 100.0 %
     Range quality 100.0 %
     Copy CRC 2495F621
     Copy OK
No errors occurred
AccurateRip summary
Track  1  not present in database
Track  2  accurately ripped (confidence 2)  [D364C22C]
Track  3  accurately ripped (confidence 2)  [2C9231EE]
Track  4  accurately ripped (confidence 2)  [8D7E6258]
Track  5  accurately ripped (confidence 2)  [062E5D1E]
Track  6  accurately ripped (confidence 2)  [CA98695E]
Track  7  not present in database
Track  8  accurately ripped (confidence 2)  [C59B175E]
6 track(s) accurately ripped
2 track(s) not present in the AccurateRip database
Some tracks could not be verified as accurate
End of status report

Другие альбомы Arthur Russell:
1986 World of Echo (remastered 2004)
2004 The World of Arthur Russell
2006 First Thought Best Thought 2CD (1973-1981 sessions)
2009 The Sleeping Bag Sessions (1981-1986 sessions)
Приватный:
Нет (DHT включён)
Размер:
682.21 Мб (715,350,669 байт) » файлов: 11
Участники:
0 раздают, 0 качают (0 участников всего)
Внешние участники:
5 раздают, 1 качают (6 участников всего) [ Обновить ]
No seeders - write a personal message to user M0p94ok. Нет сидеров - пишите личное сообщение пользователю M0p94ok.
04:05
70
Нет комментариев. Ваш будет первым!