Поиск

(Jazz Avangarde) William Parker Bass Quartet - Requiem - 2004, APE (image+.cue)

(Jazz Avangarde) William Parker Bass Quartet - Requiem - 2004, APE (image+.cue)
Треклист:
William Parker Bass Quartet - Requiem
Жанр: Jazz Avangarde
Год выпуска диска: 2004
Производитель диска: Italy
Аудио кодек: APE
Тип рипа: image+.cue
Трэклист:
Four Strings Inside a Tree 7:08
When All Is Sad 4:59
For Wilber Morris 4:48
The Little Smile 4:16
Sky Came 4:42
Heaven 4:16
Blues in the Hour Glass 8:10
Shores of Kansas 2:51
Spirits Inside the Bright House 9:08
Bermuda/Atlanta/Philadelphia/Bronx 11:34
The Last Song 3:46
Доп. информация:
Charles Gayle Sax (Alto)
Henry Grimes Bass
William Parker Bass, Producer
Alan Silva Bass
 
Отчёт EAC
Exact Audio Copy V0.99 prebeta 4 from 23. January 2008
EAC extraction logfile from 14. October 2008, 3:57
William Parker Bass Quartett (Henry Grimes, Sirone, Alan Silva) Feat. Charles Gayle / Requiem
Used drive : _NEC CD-RW NR-9500B Adapter: 3 ID: 0
Read mode : Secure
Utilize accurate stream : Yes
Defeat audio cache : No
Make use of C2 pointers : No
Combined read/write offset correction : 0
Overread into Lead-In and Lead-Out : No
Fill up missing offset samples with silence : Yes
Delete leading and trailing silent blocks : No
Null samples used in CRC calculations : No
Used interface : Native Win32 interface for Win NT & 2000
Used output format : Internal WAV Routines
Sample format : 44.100 Hz; 16 Bit; Stereo
TOC of the extracted CD
Track | Start | Length | Start sector | End sector
---------------------------------------------------------
1 | 0:00.00 | 7:08.46 | 0 | 32145
2 | 7:08.46 | 4:59.02 | 32146 | 54572
3 | 12:07.48 | 4:48.03 | 54573 | 76175
4 | 16:55.51 | 4:16.74 | 76176 | 95449
5 | 21:12.50 | 4:42.69 | 95450 | 116668
6 | 25:55.44 | 4:16.06 | 116669 | 135874
7 | 30:11.50 | 8:10.66 | 135875 | 172690
8 | 38:22.41 | 2:51.65 | 172691 | 185580
9 | 41:14.31 | 9:08.33 | 185581 | 226713
10 | 50:22.64 | 11:34.62 | 226714 | 278825
11 | 61:57.51 | 3:46.32 | 278826 | 295807
Range status and errors
Selected range
Filename C:\Temp\William Parker Bass Quartett (Henry Grimes, Sirone, Alan Silva) Feat. Charles Gayle - Requiem.wav
Peak level 49.0 %
Range quality 100.0 %
Copy CRC 7577F2BD
Copy OK
No errors occurred
End of status report
Приватный:
Нет (DHT включён)
Размер:
270.27 Мб (283,398,943 байт) » файлов: 5
Участники:
0 раздают, 0 качают (0 участников всего)
Внешние участники:
2 раздают, 1 качают (3 участников всего) [ Обновить ]
No seeders - write a personal message to user M0p94ok. Нет сидеров - пишите личное сообщение пользователю M0p94ok.
04:04
58
Нет комментариев. Ваш будет первым!