Поиск

(Jazz) William Parker Double Quartet - Alphaville Suite - 2007, FLAC (tracks+.cue), lossless

(Jazz) William Parker Double Quartet - Alphaville Suite - 2007, FLAC (tracks+.cue), lossless
Треклист:
William Parker Double Quartet - Alphaville Suite
Жанр: Jazz
Год выпуска : 2007
Страна: USA
Аудио кодек: FLAC
Тип рипа: tracks+.cue
Битрейт аудио: lossless
Продолжительность: 01:12:09
С кровью и потом добыто с помощью: EMule

1. Alphaville Main Theme (6:02)
2. Journey To The End Of The Night (11:02)
3. Natasha's Theme I (2:07)
4. Interrogation (2:53)
5. Alpha 60 (9:48)
6. Doctor Badguy (14:11)
7. Oceanville Evening (3:07)
8. Civilization Of Light (13:52)
9. Outlands (6:59)
10. Natasha's Theme II (2:08)
 
ЕАС
EAC extraction logfile from 24. December 2007, 0:00 for CD
William Parker Double Quartet / Alphaville Suite
Used drive : HL-DT-STDVDRAM GSA-4167B Adapter: 1 ID: 0
Read mode : Secure with NO C2, accurate stream, disable cache
Read offset correction : 667
Overread into Lead-In and Lead-Out : No
Used output format : Internal WAV Routines
44.100 Hz; 16 Bit; Stereo
Other options :
Fill up missing offset samples with silence : Yes
Delete leading and trailing silent blocks : No
Native Win32 interface for Win NT & 2000
Track 1
Filename E:\COP\wp\01 Track01.wav
Pre-gap length 0:00:02.00
Peak level 92.9 %
Track quality 100.0 %
Test CRC 6C8482F0
Copy CRC 6C8482F0
Copy OK
Track 2
Filename E:\COP\wp\02 Track02.wav
Peak level 92.9 %
Track quality 100.0 %
Test CRC 4720B75E
Copy CRC 4720B75E
Copy OK
Track 3
Filename E:\COP\wp\03 Track03.wav
Pre-gap length 0:00:02.66
Peak level 92.9 %
Track quality 100.0 %
Test CRC 17A8254F
Copy CRC 17A8254F
Copy OK
Track 4
Filename E:\COP\wp\04 Track04.wav
Pre-gap length 0:00:02.73
Peak level 92.9 %
Track quality 100.0 %
Test CRC FF22FEFF
Copy CRC FF22FEFF
Copy OK
Track 5
Filename E:\COP\wp\05 Track05.wav
Pre-gap length 0:00:03.20
Peak level 92.9 %
Track quality 100.0 %
Test CRC 0B6D9131
Copy CRC 0B6D9131
Copy OK
Track 6
Filename E:\COP\wp\06 Track06.wav
Pre-gap length 0:00:03.05
Peak level 92.9 %
Track quality 100.0 %
Test CRC EE0F26FB
Copy CRC EE0F26FB
Copy OK
Track 7
Filename E:\COP\wp\07 Track07.wav
Pre-gap length 0:00:04.04
Peak level 66.9 %
Track quality 100.0 %
Test CRC 8C1289F4
Copy CRC 8C1289F4
Copy OK
Track 8
Filename E:\COP\wp\08 Track08.wav
Pre-gap length 0:00:02.61
Peak level 92.9 %
Track quality 100.0 %
Test CRC 7F3FA054
Copy CRC 7F3FA054
Copy OK
Track 9
Filename E:\COP\wp\09 Track09.wav
Pre-gap length 0:00:03.27
Peak level 92.9 %
Track quality 100.0 %
Test CRC 1C46B24A
Copy CRC 1C46B24A
Copy OK
Track 10
Filename E:\COP\wp\10 Track10.wav
Pre-gap length 0:00:03.19
Peak level 95.8 %
Track quality 100.0 %
Test CRC DB08D1ED
Copy CRC DB08D1ED
Copy OK
No errors occured
End of status report

Personnel:
Artwork By - Max Schoendorff
Bass, Written-By - William Parker
Cello - Julia Kent , Shiau-Shu Yu
Drums - Hamid Drake
Mastered By - Jean Pierre Bouquet*
Photography - Lorna Lentini
Producer - Michel Dorbon
Recorded By, Mixed By - Anthony Ruotolo
Saxophone [Alto] - Rob Brown (4)
Trumpet - Lewis Barnes
Viola - Jessica Pavone
Violin - Mazz Swift
Vocals - Leena Conquest
Приватный:
Нет (DHT включён)
Размер:
449.32 Мб (471,147,018 байт) » файлов: 18
Участники:
0 раздают, 0 качают (0 участников всего)
Внешние участники:
2 раздают, 1 качают (3 участников всего) [ Обновить ]
No seeders - write a personal message to user M0p94ok. Нет сидеров - пишите личное сообщение пользователю M0p94ok.
04:11
57
Нет комментариев. Ваш будет первым!