Поиск

(Avant-Garde / Modern Creative) Hank Roberts - Green - 2008, FLAC (image+.cue), lossless

(Avant-Garde / Modern Creative) Hank Roberts - Green - 2008, FLAC (image+.cue), lossless
Треклист:
Hank Roberts - Green
Жанр: Avant-Garde / Modern Creative
Год выпуска диска: 2008
Производитель диска: Germany (Winter & Winter)
Аудио кодек: FLAC
Тип рипа: image+.cue
Битрейт аудио: lossless
Продолжительность: 57:18

Hank Roberts cello, vocals, guitar
Marc Ducret electric and acoustic guitars
Jim Black drums, electronics
Azul
Bernie (suite)
Bernie Alap
Prayer
Bernie
In the 60's
Cola People
Trees
First
Lenape (suite)
Lenape Alap
Nasfet
The Departing Hunter's Song
War Dance Song
Jersey Devil
Long Walk
Gentle
Pictures

 
EAC Report
Exact Audio Copy V0.99 prebeta 4 from 23. January 2008
EAC extraction logfile from 30. August 2008, 22:29
Hank Roberts / Green
Used drive : TSSTcorpCD/DVDW SH-S182M Adapter: 2 ID: 0
Read mode : Secure
Utilize accurate stream : Yes
Defeat audio cache : Yes
Make use of C2 pointers : No
Read offset correction : 6
Overread into Lead-In and Lead-Out : No
Fill up missing offset samples with silence : Yes
Delete leading and trailing silent blocks : No
Null samples used in CRC calculations : No
Used interface : Installed external ASPI interface
Used output format : User Defined Encoder
Selected bitrate : 1024 kBit/s
Quality : High
Add ID3 tag : No
Command line compressor : C:\Program Files\Exact Audio Copy\FLAC\FLAC.EXE
Additional command line options : -6 -V -T "ARTIST=%a" -T "TITLE=%t" -T "ALBUM=%g" -T "DATE=%y" -T "TRACKNUMBER=%n" -T "GENRE=%m" -T "COMMENT=%e" %s -o %d
TOC of the extracted CD
Track | Start | Length | Start sector | End sector
---------------------------------------------------------
1 | 0:00.00 | 9:19.46 | 0 | 41970
2 | 9:19.46 | 4:02.05 | 41971 | 60125
3 | 13:21.51 | 1:55.74 | 60126 | 68824
4 | 15:17.50 | 1:04.59 | 68825 | 73683
5 | 16:22.34 | 4:57.44 | 73684 | 96002
6 | 21:20.03 | 3:28.47 | 96003 | 111649
7 | 24:48.50 | 3:45.30 | 111650 | 128554
8 | 28:34.05 | 5:08.06 | 128555 | 151660
9 | 33:42.11 | 3:12.31 | 151661 | 166091
10 | 36:54.42 | 2:03.71 | 166092 | 175387
11 | 38:58.38 | 8:09.59 | 175388 | 212121
12 | 47:08.22 | 3:36.54 | 212122 | 228375
13 | 50:45.01 | 2:12.35 | 228376 | 238310
14 | 52:57.36 | 4:20.56 | 238311 | 257866
Range status and errors
Selected range
Filename F:\z\Hank Roberts - Green.wav
Peak level 98.9 %
Range quality 99.9 %
Copy CRC 8DC91163
Copy OK
No errors occurred
AccurateRip summary
Track 1 not present in database
Track 2 not present in database
Track 3 not present in database
Track 4 not present in database
Track 5 not present in database
Track 6 not present in database
Track 7 not present in database
Track 8 not present in database
Track 9 not present in database
Track 10 not present in database
Track 11 not present in database
Track 12 not present in database
Track 13 not present in database
Track 14 not present in database
None of the tracks are present in the AccurateRip database
End of status report
Приватный:
Нет (DHT включён)
Размер:
299.79 Мб (314,350,919 байт) » файлов: 5
Участники:
0 раздают, 0 качают (0 участников всего)
Внешние участники:
1 раздают, 0 качают (1 участников всего) [ Обновить ]
No seeders - write a personal message to user M0p94ok. Нет сидеров - пишите личное сообщение пользователю M0p94ok.
04:12
52
Нет комментариев. Ваш будет первым!