Поиск

(Free Jazz, Avant-Garde) Idris Muhammad "House of the Rising Sun" - 1976, FLAC (image+.cue), lossless

(Free Jazz, Avant-Garde) Idris Muhammad "House of the Rising Sun" - 1976, FLAC (image+.cue), lossless
Треклист:
Idris Muhammad "House of the Rising Sun"
Жанр: Jazz
Год выпуска диска: 1976
Аудио кодек: FLAC
Тип рипа: image+.cue
Битрейт аудио: lossless
Продолжительность: 00:44:44
Трэклист:
1. The House Of The Rising Sun
2. Baia ( Boogie Bump )
3. Hard To Face The Music
4. Theme For New York City
5. Sudan
6. Hey Pock A-Way
7. Pipe Stem
8. I Know You Don't Want Me No More
 
Отчет ЕАС
Exact Audio Copy V0.99 prebeta 3 from 28. July 2007
Отчёт EAC об извлечении, выполненном 17. октября 2008, 10:33
Idris Muhammad / House of the Rising Sun
Дисковод: SONY DVD RW DW-G120A Adapter: 0 ID: 0
Режим чтения : Достоверность
Использование точного потока : Да
Отключение кэша аудио : Да
Использование указателей C2 : Нет
Коррекция смещения при чтении : 6
Способность читать области Lead-in и Lead-out : Нет
Заполнение пропущенных сэмплов тишиной : Да
Удаление блоков с тишиной в начале и конце : Нет
При вычислениях CRC использовались нулевые сэмплы : Нет
Интерфейс : Встроенный Win32-интерфейс для Win NT/2000
Выходной формат : Пользовательский кодировщик
Выбранный битрейт : 768 kBit/s
Качество : Высокий
Добавление ID3-тэга : Нет
Утилита сжатия : C:\Program Files\Exact Audio Copy\FLAC\FLAC.EXE
Дополнительные параметры : -6 -V -T "ARTIST=%a" -T "TITLE=%t" -T "ALBUM=%g" -T "DATE=%y" -T "TRACKNUMBER=%n" -T "GENRE=%m" -T "COMMENT=%e" %s -o %d
Смещение при сжатии : 0
TOC извлечённого CD
Трек | Старт | Длительность | Начальный сектор | Конечный сектор
---------------------------------------------------------------------
1 | 0:00.00 | 4:42.07 | 0 | 21156
2 | 4:42.07 | 4:38.45 | 21157 | 42051
3 | 9:20.52 | 4:48.63 | 42052 | 63714
4 | 14:09.40 | 3:25.62 | 63715 | 79151
5 | 17:35.27 | 10:52.30 | 79152 | 128081
6 | 28:27.57 | 6:07.05 | 128082 | 155611
7 | 34:34.62 | 5:28.43 | 155612 | 180254
8 | 40:03.30 | 4:41.32 | 180255 | 201361
Характеристики диапазона извлечения и сообщения об ошибках
Выбранный диапазон
Имя файла E:\MY_FLACs\Idris Muhammad - House of the Rising Sun\Idris Muhammad - House of the Rising Sun.wav
Пиковый уровень 99.8 %
Качество диапазона 100.0 %
CRC копии 4B15A7BC
Копирование... OK
Ошибок не произошло
Конец отчёта
Доп. информация: Idris Muhammad - drums
Eric Gale, Joe Beck, Will Lee, Wilbur Bascomb - guitar, bass
Leon Pendarvis, Don Grolnick, Roland Hanna - piano
George Young - tenor saxophone
Ronnie Cuber - baritone saxophone
David Sanborn - alto saxophone
George Devens, Idris Muhammad - percussion
plus ensemble and vocalists.
Produced by Creed Taylor
Recorded at Van Gelder Studios 1975
Приватный:
Нет (DHT включён)
Размер:
300.67 Мб (315,273,742 байт) » файлов: 8
Участники:
78 раздают, 0 качают (78 участников всего)
Внешние участники:
2 раздают, 1 качают (3 участников всего) [ Обновить ]
No seeders - write a personal message to user M0p94ok. Нет сидеров - пишите личное сообщение пользователю M0p94ok.
04:13
57
Нет комментариев. Ваш будет первым!