Поиск

(Jazz / Experimental / Electronics) DJ Spooky That Subliminal Kid 2002 Optometry (Blue Series) (William Parker / Matthew Shipp / Joe McPhee / Guillermo E. Brown etc), FLAC (image+.cue), lossless

(Jazz / Experimental / Electronics) DJ Spooky That Subliminal Kid 2002 Optometry (Blue Series) (William Parker / Matthew Shipp / Joe McPhee / Guillermo E. Brown etc), FLAC (image+.cue), lossless
Треклист:
DJ Spooky That Subliminal Kid - Optometry (Blue Series)
Жанр: Jazz / Experimental / Electronics
Год выпуска диска: 2002
Производитель диска: Norway (Thirsty Ear)
Аудио кодек: FLAC
Тип рипа: image+.cue
Битрейт аудио: lossless
Продолжительность: 74:03
Трэклист:
01 Ibid, Désmarches, Ibid (5:40)
02 Reactive Switching Strategies For The Control Of Uninhabited Air (6:14)
03 Variation Cybernétique: Rhythmic Pataphysic (Part I) (2:48)
04 Asphalt (Tome II) (7:03)
05 Optometry (11:36)
06 Sequentia Absentia (Dialectical Triangulation I) (7:03)
07 Rosemary (4:10)
08 Dementia Absentia (Dialectical Triangulation II) (3:34)
09 Parachutes (5:26)
10 Absentia Absentia (Dialectical Triangulation III) (3:51)
11 Variation Cybernétique: Rhythmic Pataphysic (Part II) (2:13)
12 Périphique (9:07)
13 It's A Mad, Mad, Mad, World (5:11)
Band:
William Parker - Bass
DJ Spooky - Computer [Laptop], Kalimba, Scratches [Turntables], Double Bass, Producer, Artwork By
Guillermo E. Brown - Drums
Matthew Shipp - Piano
Joe McPhee - Saxophone [Tenor], Trumpet
Daniel Bernard Roumain - Violin [Solo] (tracks 3,5,11)
Carl Hancock Rux - Vocals (track 4)
Pauline Oliveros (track 4)
Billy Martin - Drums [Beats] (track 5)
Matthew Anderson - Bass (track 9)
Jack Walker - Flute (track 9)
Daniel Carter (track 9)
Napoleon (of IsWhat?) - Vocals, Beatboxing (track 9)
High Priest (of Anti-Pop Consortium) - Electronics (track 10)
Artwork By, Photography - Cynthia Fetty
Part of the ever-growing Blue Series Continuum on Thirsty Ear.
Доп. информация:
Отсутствие Optometry на трекере может объяснить только то, что он у всех есть. Но на всякий случай выкладываю.
Сканы с 6-стр. буклетом прилагаются.
Тут видео-концерт этого проекта.
 
Отчет EAC
Код:
Exact Audio Copy V0.99 prebeta 3 from 28. July 2007
EAC extraction logfile from 17. October 2008, 9:00
DJ Spooky / Optometry
Used drive  : ASUS    DRW-1814BL   Adapter: 0  ID: 1
Read mode               : Secure
Utilize accurate stream : Yes
Defeat audio cache      : Yes
Make use of C2 pointers : No
Read offset correction                      : 6
Overread into Lead-In and Lead-Out          : No
Fill up missing offset samples with silence : Yes
Delete leading and trailing silent blocks   : No
Null samples used in CRC calculations       : Yes
Used interface                              : Installed external ASPI interface
Used output format : Internal WAV Routines
Sample format      : 44.100 Hz; 16 Bit; Stereo
TOC of the extracted CD
     Track |   Start  |  Length  | Start sector | End sector
    ---------------------------------------------------------
        1  |  0:00.00 |  5:40.10 |         0    |    25509
        2  |  5:40.10 |  6:14.65 |     25510    |    53624
        3  | 11:55.00 |  2:48.23 |     53625    |    66247
        4  | 14:43.23 |  7:03.59 |     66248    |    98031
        5  | 21:47.07 | 11:36.20 |     98032    |   150251
        6  | 33:23.27 |  7:03.70 |    150252    |   182046
        7  | 40:27.22 |  4:10.58 |    182047    |   200854
        8  | 44:38.05 |  3:34.35 |    200855    |   216939
        9  | 48:12.40 |  5:26.08 |    216940    |   241397
       10  | 53:38.48 |  3:51.40 |    241398    |   258762
       11  | 57:30.13 |  2:13.03 |    258763    |   268740
       12  | 59:43.16 |  9:07.64 |    268741    |   309829
       13  | 68:51.05 |  5:11.51 |    309830    |   333205
Range status and errors
Selected range
     Filename E:\ape\!torrent\release\flac\DJ Spooky 2002 Optometry\CDImage.wav
     Peak level 100.0 %
     Range quality 100.0 %
     Copy CRC DF723BE9
     Copy OK
No errors occurred
AccurateRip summary
Track  1  accurately ripped (confidence 11)  [4CC3C8CA]
Track  2  accurately ripped (confidence 11)  [961179C3]
Track  3  accurately ripped (confidence 11)  [8BCCA1DE]
Track  4  accurately ripped (confidence 10)  [15662BC6]
Track  5  accurately ripped (confidence 11)  [9565541F]
Track  6  accurately ripped (confidence 11)  [A8BC962B]
Track  7  accurately ripped (confidence 10)  [2DAFCBDA]
Track  8  accurately ripped (confidence 10)  [FEB8F431]
Track  9  accurately ripped (confidence 10)  [54140832]
Track 10  accurately ripped (confidence 11)  [C8C82354]
Track 11  accurately ripped (confidence 11)  [8971BF64]
Track 12  accurately ripped (confidence 9)  [E2AA1155]
Track 13  accurately ripped (confidence 9)  [A8CB255F]
All tracks accurately ripped
End of status report
Приватный:
Нет (DHT включён)
Размер:
461.78 Мб (484,211,520 байт) » файлов: 9
Участники:
0 раздают, 0 качают (0 участников всего)
Внешние участники:
2 раздают, 1 качают (3 участников всего) [ Обновить ]
No seeders - write a personal message to user M0p94ok. Нет сидеров - пишите личное сообщение пользователю M0p94ok.
04:10
57
Нет комментариев. Ваш будет первым!