Поиск

(Jazz) Tyrone Hill & Elliot Levin 4tet -Soul Etude - 1999, FLAC (image+.cue),lossless

(Jazz) Tyrone Hill & Elliot Levin 4tet -Soul Etude - 1999, FLAC (image+.cue),lossless
Треклист:
Tyrone Hill & Elliot Levin 4tet -Soul Etude-1999
Жанр: Jazz
Год выпуска диска: 1999
Производитель диска: CIMP-USA
Аудио кодек: FLAC
Тип рипа:image+.cue
Битрейт аудио: lossless
Продолжительность: 72:42
Трэклист:
1 We're living in a spae age
2 ROD
3 Revolving door
4 the long march
5 soul-etude
6 PGC blues-take-2
7 PGC blues-take -3
Состав:
Elliott Levin - sax
Tyrone Hill - trb
Howard Cooper - bs
Ed Watkins - dr
 
EAC log
Exact Audio Copy V0.99 prebeta 4 from 23. January 2008
Отчёт EAC об извлечении, выполненном 6. октября 2008, 20:17
Tyrone Hill & Elliott Levin 4tet / Soul-Etude
Дисковод: HL-DT-STDVDRAM GH20NS10 Adapter: 0 ID: 1
Режим чтения : Достоверность
Использование точного потока : Да
Отключение кэша аудио : Да
Использование указателей C2 : Нет
Коррекция смещения при чтении : 667
Способность читать области Lead-in и Lead-out : Нет
Заполнение пропущенных сэмплов тишиной : Да
Удаление блоков с тишиной в начале и конце : Нет
При вычислениях CRC использовались нулевые сэмплы : Да
Интерфейс : Установленный внешний ASPI-интерфейс
Выходной формат : Внутренние WAV-операции
Формат сэмплов : 44.100 Гц; 16 бит; стерео
TOC извлечённого CD
Трек | Старт | Длительность | Начальный сектор | Конечный сектор
---------------------------------------------------------------------
1 | 0:00.00 | 14:22.32 | 0 | 64681
2 | 14:22.32 | 9:44.21 | 64682 | 108502
3 | 24:06.53 | 8:04.37 | 108503 | 144839
4 | 32:11.15 | 9:44.36 | 144840 | 188675
5 | 41:55.51 | 10:13.12 | 188676 | 234662
6 | 52:08.63 | 8:59.25 | 234663 | 275112
7 | 61:08.13 | 11:34.20 | 275113 | 327182
Характеристики диапазона извлечения и сообщения об ошибках
Выбранный диапазон
Имя файла D:\Музыка\Записи\Новая папка\Tyrone Hill & Elliott Levin 4tet - Soul-Etude.wav
Пиковый уровень 100.0 %
Качество диапазона 100.0 %
CRC копии 49BFDF64
Копирование... OK
Ошибок не произошло
Конец отчёта
Приватный:
Нет (DHT включён)
Размер:
389.26 Мб (408,171,545 байт) » файлов: 5
Участники:
0 раздают, 0 качают (0 участников всего)
Внешние участники:
5 раздают, 2 качают (7 участников всего) [ Обновить ]
No seeders - write a personal message to user M0p94ok. Нет сидеров - пишите личное сообщение пользователю M0p94ok.
03:57
86
Нет комментариев. Ваш будет первым!