Поиск

(modern creative, joyful noise, difficult easy listening, Tzadik New Japan) Hoahio (Haco, Yagi Michiyo with Era Mari / Sachiko M) - "Ohayo! Hoahio!" & "Peek-Ara-Boo" - 2000, FLAC (image+.cue), lossless

(modern creative, joyful noise, difficult easy listening, Tzadik New Japan) Hoahio (Haco, Yagi Michiyo with Era Mari / Sachiko M) - "Ohayo! Hoahio!" & "Peek-Ara-Boo" - 2000, FLAC (image+.cue), lossless
Треклист:
Hoahio (Haco, Yagi Michiyo with Era Mari / Sachiko M) - "Ohayo! Hoahio!" & "Peek-Ara-Boo"
Жанр: modern creative, joyful noise, difficult easy listening, Tzadik New Japan
Год выпуска диска: 2000
Производитель диска: USA (Tzadik)
Аудио кодек: FLAC
Тип рипа: image+.cue
Битрейт аудио: lossless
Продолжительность: 45.34 + 48.51
Трэклист:
"Ohayo! Hoahio!" - 2000
1. Hoahio Song
2. Happy Mail
3. Seeds
4. Marimo
5. ChatChat
6. Jellyfish
7. Sea Wall II
8. Invisible Fireworks
9. DunDun
10. Less than Lovers, More than Friends
"Peek-Ara-Boo" - 2003
1. DJ Hashimoto
2. Pond Skater (Amembo)
3. Tightrope Walkin’
4. Cach Thao Lap
5. Yachiyo View
6. My Sister, The Wind
7. Neco
8. Let’s Meet In Idaho
9. Tribal Markets
10. Another Dream of Africa II
11. Knitting Crane
Доп. информация: Personnel on "Ohayo! Hoahio!" :
Haco : Vocals, Sampler, Electric Mandolin, Synthesizer Bass, Electronic Percussion, Morroccan Drum, Plastic Cup, Guitar
Sachiko M : Voice, Trigger Synthesizer, Peizo Microphone With Effects, Sampler
Yagi Michiyo : Koto, Voice
Personnel on "Peek-Ara-Boo" :
Haco : Vocals, Electric Mandolin, Effects, Synthesizers, Jew's Harp, Electronics, Theremin
Era Mari : Drums, Vibraphone, Percussion, Bass Marimba, Bamboo Xylophone
Yagi Michiyo : Koto, Chorus, Perpared Shamisen, Spoken Voice
Christopher Stephens : Electronics, Keyboard, Violin, Crickets
Так вот - свидетельствую - творения, созданные этим женским трио - нечто совершенно чумовое - очень гармоничный по своей внутренней структуре чуть ли не алхимический сплав очень смелых и передовых экспериментальных идей из области электроакустики, нойза и черт знает чего еще (все таки Sachiko M - это не просто так) с, представьте себе - свойствами поп-музыки (в той сложноуловимой ее форме, когда поп еще можно назвать музыкой). Результат - приятно радует решительно весь организм - тут есть и к чему прислушаться, есть подо что потрясти, скажем, попой, есть над чем задуматься, есть над чем посмеяться и при удачном (солнечном, я бы сказал) сплетении обстоятельств найти повод даже для смеха над собой - и тогда - уж точно - ничто более ни на свете ни в тьме не позволит нам быть скучными, и в глазах наших будет блестеть мысль (тем самым здоровым блеском - не расширяющим и не сужающим зрачков), и лица наши будет озарять улыбка, и куда то внутрь зайдет погостить ощущение, что окружающий мир - штука вполне позитивно настроенная. иногда.
И между прочим - Happy Mail и DJ Hashimoto - пожалуй, входят в разряд самых прилипчивых мелодий, которых я когда либо слышал.
 
eac log Ohayo! Hoahio!
Exact Audio Copy V0.99 prebeta 4 from 23. January 2008
Отчёт EAC об извлечении, выполненном 8. октября 2008, 4:03
Hoahio / Ohayo Hoahio
Дисковод: Optiarc DVD RW AD-7170A Adapter: 0 ID: 1
Режим чтения : Достоверность
Использование точного потока : Да
Отключение кэша аудио : Да
Использование указателей C2 : Нет
Коррекция смещения при чтении : 48
Способность читать области Lead-in и Lead-out : Нет
Заполнение пропущенных сэмплов тишиной : Да
Удаление блоков с тишиной в начале и конце : Нет
При вычислениях CRC использовались нулевые сэмплы : Да
Интерфейс : Встроенный Win32-интерфейс для Win NT/2000
Выходной формат : Пользовательский кодировщик
Выбранный битрейт : 768 kBit/s
Качество : Высокий
Добавление ID3-тэга : Нет
Утилита сжатия : D:\Program Files\Exact Audio Copy\FLAC\FLAC.EXE
Дополнительные параметры : -6 -V -T "ARTIST=%a" -T "TITLE=%t" -T "ALBUM=%g" -T "DATE=%y" -T "TRACKNUMBER=%n" -T "GENRE=%m" -T "COMMENT=%e" %s -o %d
TOC извлечённого CD
Трек | Старт | Длительность | Начальный сектор | Конечный сектор
---------------------------------------------------------------------
1 | 0:00.00 | 2:29.27 | 0 | 11201
2 | 2:29.27 | 4:39.20 | 11202 | 32146
3 | 7:08.47 | 2:34.15 | 32147 | 43711
4 | 9:42.62 | 5:24.20 | 43712 | 68031
5 | 15:07.07 | 2:20.58 | 68032 | 78589
6 | 17:27.65 | 2:45.45 | 78590 | 91009
7 | 20:13.35 | 7:22.55 | 91010 | 124214
8 | 27:36.15 | 2:10.65 | 124215 | 134029
9 | 29:47.05 | 9:20.60 | 134030 | 176089
10 | 39:07.65 | 6:25.52 | 176090 | 205016
Характеристики диапазона извлечения и сообщения об ошибках
Выбранный диапазон
Имя файла D:\EAC\Hoahio - Ohayo Hoahio.wav
Пиковый уровень 100.0 %
Качество диапазона 99.9 %
CRC копии C35045B7
Копирование... OK
Ошибок не произошло
AccurateRip: сводка
Трек 1 точность не определена (достоверность 1) [C24B686F], AccurateRip вернул [3CA3F2E5]
Трек 2 точность не определена (достоверность 1) [E8ACBC08], AccurateRip вернул [35A346C0]
Трек 3 точность не определена (достоверность 1) [DBE85692], AccurateRip вернул [72A3C923]
Трек 4 точность не определена (достоверность 1) [C6FE687B], AccurateRip вернул [B0D5C6F3]
Трек 5 точность не определена (достоверность 1) [8ED4BA5A], AccurateRip вернул [F0A8CE26]
Трек 6 точность не определена (достоверность 1) [109B24F3], AccurateRip вернул [1208D1E5]
Трек 7 точность не определена (достоверность 1) [1070B9E7], AccurateRip вернул [1C676635]
Трек 8 точность не определена (достоверность 1) [410E9D0F], AccurateRip вернул [21D3A462]
Трек 9 точность не определена (достоверность 1) [89078432], AccurateRip вернул [B513586D]
Трек 10 точность не определена (достоверность 1) [BAD167D7], AccurateRip вернул [162CBF76]
Ни один трек не прошёл проверки на точность
В вашей базе может быть иной вариант штамповки диска
Конец отчёта
 
eac log Peek-Ara-Boo
Exact Audio Copy V0.99 prebeta 4 from 23. January 2008
Отчёт EAC об извлечении, выполненном 8. октября 2008, 3:48
Hoahio / Peek-Ara-Boo
Дисковод: Optiarc DVD RW AD-7170A Adapter: 0 ID: 1
Режим чтения : Достоверность
Использование точного потока : Да
Отключение кэша аудио : Да
Использование указателей C2 : Нет
Коррекция смещения при чтении : 48
Способность читать области Lead-in и Lead-out : Нет
Заполнение пропущенных сэмплов тишиной : Да
Удаление блоков с тишиной в начале и конце : Нет
При вычислениях CRC использовались нулевые сэмплы : Да
Интерфейс : Встроенный Win32-интерфейс для Win NT/2000
Выходной формат : Пользовательский кодировщик
Выбранный битрейт : 768 kBit/s
Качество : Высокий
Добавление ID3-тэга : Нет
Утилита сжатия : D:\Program Files\Exact Audio Copy\FLAC\FLAC.EXE
Дополнительные параметры : -6 -V -T "ARTIST=%a" -T "TITLE=%t" -T "ALBUM=%g" -T "DATE=%y" -T "TRACKNUMBER=%n" -T "GENRE=%m" -T "COMMENT=%e" %s -o %d
TOC извлечённого CD
Трек | Старт | Длительность | Начальный сектор | Конечный сектор
---------------------------------------------------------------------
1 | 0:00.00 | 4:27.43 | 0 | 20067
2 | 4:27.43 | 4:16.30 | 20068 | 39297
3 | 8:43.73 | 4:18.02 | 39298 | 58649
4 | 13:02.00 | 3:38.02 | 58650 | 75001
5 | 16:40.02 | 3:06.38 | 75002 | 88989
6 | 19:46.40 | 4:17.38 | 88990 | 108302
7 | 24:04.03 | 2:36.24 | 108303 | 120026
8 | 26:40.27 | 6:06.03 | 120027 | 147479
9 | 32:46.30 | 6:14.13 | 147480 | 175542
10 | 39:00.43 | 6:02.22 | 175543 | 202714
11 | 45:02.65 | 3:47.74 | 202715 | 219813
Характеристики диапазона извлечения и сообщения об ошибках
Выбранный диапазон
Имя файла D:\EAC\Hoahio - Peek-Ara-Boo.wav
Пиковый уровень 100.0 %
Качество диапазона 100.0 %
CRC копии EC13C850
Копирование... OK
Ошибок не произошло
AccurateRip: сводка
Трек 1 нет в базе данных
Трек 2 нет в базе данных
Трек 3 нет в базе данных
Трек 4 нет в базе данных
Трек 5 нет в базе данных
Трек 6 нет в базе данных
Трек 7 нет в базе данных
Трек 8 нет в базе данных
Трек 9 нет в базе данных
Трек 10 нет в базе данных
Трек 11 нет в базе данных
Ни одного трека нет в базе AccurateRip
Конец отчёта
Приватный:
Нет (DHT включён)
Размер:
510.73 Мб (535,543,137 байт) » файлов: 6
Участники:
0 раздают, 0 качают (0 участников всего)
Внешние участники:
5 раздают, 1 качают (6 участников всего) [ Обновить ]
No seeders - write a personal message to user M0p94ok. Нет сидеров - пишите личное сообщение пользователю M0p94ok.
03:57
58
Нет комментариев. Ваш будет первым!