Поиск

(Avant-garde / Experimental / Ambient) Mark Nauseef / Kudsi Erguner / Markus Stockhausen / Bill Laswell - No Matter - 2008, FLAC (image+.cue), lossless

(Avant-garde / Experimental / Ambient) Mark Nauseef / Kudsi Erguner / Markus Stockhausen / Bill Laswell - No Matter - 2008, FLAC (image+.cue), lossless
Треклист:
Mark Nauseef / Kudsi Erguner / Markus Stockhausen / Bill Laswell - No Matter
Жанр: Avant-garde / Experimental / Ambient
Год выпуска диска: 2008
Производитель диска: USA (Metastation)
Аудио кодек: FLAC
Тип рипа: image+.cue
Битрейт аудио: lossless
Продолжительность: 55:19
Mark Nauseef meditation bells, gongs
Kudsi Erguner ney
Markus Stockhausen trumpet, flugelhorn
Bill Laswell fretless bass, sitar bass, sounds
Please Be Seated
Expansion
Suspension
Hamsa
Nirodha
Ekatanta
Return To Bell
 
EAC Report
Exact Audio Copy V0.99 prebeta 4 from 23. January 2008
EAC extraction logfile from 13. September 2008, 20:01
Mark Nauseef / Kudsi Erguner / Markus Stockhausen / Bill Laswell / No Matter
Used drive : TSSTcorpCD/DVDW SH-S182M Adapter: 2 ID: 0
Read mode : Secure
Utilize accurate stream : Yes
Defeat audio cache : Yes
Make use of C2 pointers : No
Read offset correction : 6
Overread into Lead-In and Lead-Out : No
Fill up missing offset samples with silence : Yes
Delete leading and trailing silent blocks : No
Null samples used in CRC calculations : No
Used interface : Installed external ASPI interface
Used output format : User Defined Encoder
Selected bitrate : 1024 kBit/s
Quality : High
Add ID3 tag : No
Command line compressor : C:\Program Files\Exact Audio Copy\FLAC\FLAC.EXE
Additional command line options : -6 -V -T "ARTIST=%a" -T "TITLE=%t" -T "ALBUM=%g" -T "DATE=%y" -T "TRACKNUMBER=%n" -T "GENRE=%m" -T "COMMENT=%e" %s -o %d
TOC of the extracted CD
Track | Start | Length | Start sector | End sector
---------------------------------------------------------
1 | 0:00.00 | 8:01.25 | 0 | 36099
2 | 8:01.25 | 12:46.71 | 36100 | 93620
3 | 20:48.21 | 4:01.47 | 93621 | 111742
4 | 24:49.68 | 3:51.02 | 111743 | 129069
5 | 28:40.70 | 8:11.03 | 129070 | 165897
6 | 36:51.73 | 7:41.45 | 165898 | 200517
7 | 44:33.43 | 10:45.56 | 200518 | 248948
Range status and errors
Selected range
Filename C:\z\Nauseef Erguner Stockhausen Laswell - No Matter.wav
Peak level 96.6 %
Range quality 99.9 %
Test CRC D26E1C2B
Copy CRC D26E1C2B
Copy OK
No errors occurred
AccurateRip summary
Track 1 not present in database
Track 2 not present in database
Track 3 not present in database
Track 4 not present in database
Track 5 not present in database
Track 6 not present in database
Track 7 not present in database
None of the tracks are present in the AccurateRip database
End of status report
Приватный:
Нет (DHT включён)
Размер:
263.66 Мб (276,468,260 байт) » файлов: 5
Участники:
0 раздают, 0 качают (0 участников всего)
Внешние участники:
7 раздают, 2 качают (9 участников всего) [ Обновить ]
No seeders - write a personal message to user M0p94ok. Нет сидеров - пишите личное сообщение пользователю M0p94ok.
03:56
54
Нет комментариев. Ваш будет первым!