Поиск

(avantgarde) Eugene Chadbourne & John Zorn - Sonora (1977-1981) (with Fred Frith, Tom Cora, Toshinori Kondo & more) - 1998, FLAC (image+.cue), lossless

Треклист:
Eugene Chadbourne & John Zorn - Sonora (1977-1981) (with Fred Frith, Tom Cora, Toshinori Kondo & more)
Жанр: avantgarde
Год выпуска диска: 1998
Производитель диска: Italy (Materiali Sonori)
Аудио кодек: FLAC
Тип рипа: image+.cue
Битрейт аудио: lossless
Продолжительность: 43.44
Трэклист:
1. The Viaduct
Eugene Chadbourne - Guitar
John Zorn - Saxophone
2. Welcome West
Eugene Chadbourne - Guitar
John Zorn - Saxophone
Polly Bradfield - Violin
03. The Double AA
Eugene Chadbourne - Guitar
John Zorn - Saxophone
04. The English Channel / W VA Spec (New Mix)
Eugene Chadbourne -Guitar
John Zorn - Saxophone
Polly Bradfield - Violin
La Donna Smith - Violin
Jim Katzin - Violin
Tom Cora - Cello
Wayne Horvitz - Keyboards
Mark Kramer - organ
Andrea Centazzo, David Licht, Dennis Licht - Percussion
Tom Shephard - Guitar (Bass)
Steve Beresford, Toshinori Kondo - Trumpet
Lesli Dalaba - Trumpet
David Loyle - French Horn
Byron Haskins -Clarinet
Fred Frith - Guitar (Electric)
Davey Williams - Guitar (Electric)
Доп. информация: Данный CD является бесплатным приложением к итальянскому журналу SONORA, выпуску за 1998 год, целиком посвященному Зорну. Музыкальный материал для издания предоставлен Чадбурном и, судя по сопроводительной статье в журнале, ранее в этой редакции не издавался на CD.
 
eac log
Exact Audio Copy V0.99 prebeta 4 from 23. January 2008
Отчёт EAC об извлечении, выполненном 4. октября 2008, 4:06
Eugene Chadbourne & John Zorn / Sonora (1977-1981)
Дисковод: Optiarc DVD RW AD-7170A Adapter: 0 ID: 1
Режим чтения : Достоверность
Использование точного потока : Да
Отключение кэша аудио : Да
Использование указателей C2 : Нет
Коррекция смещения при чтении : 48
Способность читать области Lead-in и Lead-out : Нет
Заполнение пропущенных сэмплов тишиной : Да
Удаление блоков с тишиной в начале и конце : Нет
При вычислениях CRC использовались нулевые сэмплы : Да
Интерфейс : Встроенный Win32-интерфейс для Win NT/2000
Выходной формат : Пользовательский кодировщик
Выбранный битрейт : 768 kBit/s
Качество : Высокий
Добавление ID3-тэга : Нет
Утилита сжатия : D:\Program Files\Exact Audio Copy\FLAC\FLAC.EXE
Дополнительные параметры : -6 -V -T "ARTIST=%a" -T "TITLE=%t" -T "ALBUM=%g" -T "DATE=%y" -T "TRACKNUMBER=%n" -T "GENRE=%m" -T "COMMENT=%e" %s -o %d
TOC извлечённого CD
Трек | Старт | Длительность | Начальный сектор | Конечный сектор
---------------------------------------------------------------------
1 | 0:00.00 | 9:24.36 | 0 | 42335
2 | 9:24.36 | 14:18.04 | 42336 | 106689
3 | 23:42.40 | 5:30.35 | 106690 | 131474
4 | 29:13.00 | 14:30.45 | 131475 | 196769
Характеристики диапазона извлечения и сообщения об ошибках
Выбранный диапазон
Имя файла D:\EAC\Eugene Chadbourne & John Zorn - Sonora (1977-1981).wav
Пиковый уровень 96.5 %
Качество диапазона 100.0 %
CRC копии 223BAAB6
Копирование... OK
Ошибок не произошло
AccurateRip: сводка
Трек 1 нет в базе данных
Трек 2 нет в базе данных
Трек 3 нет в базе данных
Трек 4 нет в базе данных
Ни одного трека нет в базе AccurateRip
Конец отчёта
Приватный:
Нет (DHT включён)
Размер:
197.38 Мб (206,969,566 байт) » файлов: 3
Участники:
0 раздают, 0 качают (0 участников всего)
Внешние участники:
2 раздают, 1 качают (3 участников всего) [ Обновить ]
No seeders - write a personal message to user M0p94ok. Нет сидеров - пишите личное сообщение пользователю M0p94ok.
03:55
65
Нет комментариев. Ваш будет первым!