Поиск

(acid jazz) Toshinori Kondo, Eraldo Bernocchi, Bill Laswell - Charged - 1999, FLAC (image+.cue), lossless

(acid jazz) Toshinori Kondo, Eraldo Bernocchi, Bill Laswell - Charged - 1999, FLAC (image+.cue), lossless
Треклист:
Toshinori Kondo, Eraldo Bernocchi, Bill Laswell - Charged
Жанр: acid jazz
Год выпуска диска: 1999
Производитель диска: Austria (R & S Records)
Аудио кодек: FLAC
Тип рипа: image+.cue
Битрейт аудио: lossless
Продолжительность: 53.36
Трэклист:
01 - Called [5:28]
02 - Cried [5:50]
03 - Cornered [5:15]
04 - Connected [7:49]
05 - Cleared [4:50]
06 - Tokyo [8:58]
07- Crooned [5:23]
08 - Charged [5:36]
09 - Out [3:28]
Доп. информация: Toshinori Kondo - Electric Trumpet
Bill Laswell - Bass
Eraldo Bernocchi - Electronics, Programmed and Guitar Treated
 
eac log
Exact Audio Copy V0.99 prebeta 4 from 23. January 2008
Отчёт EAC об извлечении, выполненном 3. октября 2008, 15:07
Toshinori Kondo, Eraldo Bernocchi, Bill Laswell / Charged
Дисковод: Optiarc DVD RW AD-7170A Adapter: 0 ID: 1
Режим чтения : Достоверность
Использование точного потока : Да
Отключение кэша аудио : Да
Использование указателей C2 : Нет
Коррекция смещения при чтении : 48
Способность читать области Lead-in и Lead-out : Нет
Заполнение пропущенных сэмплов тишиной : Да
Удаление блоков с тишиной в начале и конце : Нет
При вычислениях CRC использовались нулевые сэмплы : Да
Интерфейс : Встроенный Win32-интерфейс для Win NT/2000
Выходной формат : Пользовательский кодировщик
Выбранный битрейт : 768 kBit/s
Качество : Высокий
Добавление ID3-тэга : Нет
Утилита сжатия : D:\Program Files\Exact Audio Copy\FLAC\FLAC.EXE
Дополнительные параметры : -6 -V -T "ARTIST=%a" -T "TITLE=%t" -T "ALBUM=%g" -T "DATE=%y" -T "TRACKNUMBER=%n" -T "GENRE=%m" -T "COMMENT=%e" %s -o %d
TOC извлечённого CD
Трек | Старт | Длительность | Начальный сектор | Конечный сектор
---------------------------------------------------------------------
1 | 0:00.00 | 5:28.15 | 0 | 24614
2 | 5:28.15 | 5:50.24 | 24615 | 50888
3 | 11:18.39 | 5:14.71 | 50889 | 74509
4 | 16:33.35 | 7:48.57 | 74510 | 109666
5 | 24:22.17 | 4:49.40 | 109667 | 131381
6 | 29:11.57 | 8:57.73 | 131382 | 171729
7 | 38:09.55 | 5:23.35 | 171730 | 195989
8 | 43:33.15 | 5:35.42 | 195990 | 221156
9 | 49:08.57 | 3:28.17 | 221157 | 236773
Характеристики диапазона извлечения и сообщения об ошибках
Выбранный диапазон
Имя файла D:\EAC\Toshinori Kondo, Eraldo Bernocchi, Bill Laswell - Charged.wav
Пиковый уровень 98.8 %
Качество диапазона 100.0 %
CRC копии 3D54B1EE
Копирование... OK
Ошибок не произошло
AccurateRip: сводка
Трек 1 точное извлечение (доверие 4) [F9D58989]
Трек 2 точное извлечение (доверие 4) [4D4C8E10]
Трек 3 точное извлечение (доверие 4) [BE77E0AB]
Трек 4 точное извлечение (доверие 4) [FB098157]
Трек 5 точное извлечение (доверие 4) [B98BB5D0]
Трек 6 точное извлечение (доверие 4) [42F2FBC9]
Трек 7 точное извлечение (доверие 4) [5EB9E600]
Трек 8 точное извлечение (доверие 4) [5F6B9A13]
Трек 9 точное извлечение (доверие 4) [A96EABD2]
Все треки извлечены точно
Конец отчёта
Приватный:
Нет (DHT включён)
Размер:
323.04 Мб (338,736,565 байт) » файлов: 3
Участники:
0 раздают, 0 качают (0 участников всего)
Внешние участники:
5 раздают, 2 качают (7 участников всего) [ Обновить ]
No seeders - write a personal message to user M0p94ok. Нет сидеров - пишите личное сообщение пользователю M0p94ok.
03:55
84
Нет комментариев. Ваш будет первым!