Поиск

(avantgarde, a-capella pyrotechnics, Tzadik New Japan) Adachi Tomomi Royal Chorus - Yo - 2003, FLAC (image+.cue), lossless

Треклист:
Adachi Tomomi Royal Chorus - Yo
Жанр: avantgarde, a-capella pyrotechnics, Tzadik New Japan
Год выпуска диска: 2003
Производитель диска: USA (Tzadik)
Аудио кодек: FLAC
Тип рипа: image+.cue
Битрейт аудио: lossless
Продолжительность: 47.49
Трэклист:
1. Yumiko
2. Yoiko
3. Ganzin
4. Kinako
5. Yo
6. Namahage-Mint
7. Garden Balsam
8. Mimi
9. Pusu
10. Tanpan
11. Prelude And Fugue
12. Kim
13. Mahoko
14. Kan No Mi Ho
15. Gu
16. Yusaku
Доп. информация: Personnel:
Fukunaga Ayako: Vocals
Iwata Chikako: Vocals
Hirata: Vocals
Egawa Risa: Vocals
Unami Taku: Vocals
Adachi Tomomi: Vocals
 
Notes from TZADIK website
Adachi Tomomi Royal Chorus is an experimental vocal group based in Tokyo. Drawing upon influences as diverse as the Fluxus movement, hardcore punk, contemporary classical, TV commercials, cartoon music, Conceptual Art and more, Adachi’s complex compositional miniatures are filled with energy, imagination and a sly sense of humor. This stuff really kicks.
 
eac log
Exact Audio Copy V0.99 prebeta 4 from 23. January 2008
Отчёт EAC об извлечении, выполненном 30. сентября 2008, 18:08
Yo / Adachi Tomomi Royal Chorus
Дисковод: Optiarc DVD RW AD-7170A Adapter: 0 ID: 1
Режим чтения : Достоверность
Использование точного потока : Да
Отключение кэша аудио : Да
Использование указателей C2 : Нет
Коррекция смещения при чтении : 48
Способность читать области Lead-in и Lead-out : Нет
Заполнение пропущенных сэмплов тишиной : Да
Удаление блоков с тишиной в начале и конце : Нет
При вычислениях CRC использовались нулевые сэмплы : Да
Интерфейс : Встроенный Win32-интерфейс для Win NT/2000
Выходной формат : Пользовательский кодировщик
Выбранный битрейт : 768 kBit/s
Качество : Высокий
Добавление ID3-тэга : Нет
Утилита сжатия : D:\Program Files\Exact Audio Copy\FLAC\FLAC.EXE
Дополнительные параметры : -6 -V -T "ARTIST=%a" -T "TITLE=%t" -T "ALBUM=%g" -T "DATE=%y" -T "TRACKNUMBER=%n" -T "GENRE=%m" -T "COMMENT=%e" %s -o %d
TOC извлечённого CD
Трек | Старт | Длительность | Начальный сектор | Конечный сектор
---------------------------------------------------------------------
1 | 0:00.00 | 1:30.31 | 0 | 6780
2 | 1:30.31 | 1:43.11 | 6781 | 14516
3 | 3:13.42 | 1:48.35 | 14517 | 22651
4 | 5:02.02 | 1:02.63 | 22652 | 27364
5 | 6:04.65 | 4:30.03 | 27365 | 47617
6 | 10:34.68 | 2:33.14 | 47618 | 59106
7 | 13:08.07 | 4:39.24 | 59107 | 80055
8 | 17:47.31 | 2:32.53 | 80056 | 91508
9 | 20:20.09 | 4:24.47 | 91509 | 111355
10 | 24:44.56 | 3:26.46 | 111356 | 126851
11 | 28:11.27 | 0:49.44 | 126852 | 130570
12 | 29:00.71 | 4:24.08 | 130571 | 150378
13 | 33:25.04 | 3:59.60 | 150379 | 168363
14 | 37:24.64 | 1:57.39 | 168364 | 177177
15 | 39:22.28 | 8:14.59 | 177178 | 214286
16 | 47:37.12 | 0:11.36 | 214287 | 215147
Характеристики диапазона извлечения и сообщения об ошибках
Выбранный диапазон
Имя файла D:\EAC\Yo - Adachi Tomomi Royal Chorus.wav
Пиковый уровень 100.0 %
Качество диапазона 99.9 %
CRC копии 8CDB112C
Копирование... OK
Ошибок не произошло
AccurateRip: сводка
Трек 1 нет в базе данных
Трек 2 нет в базе данных
Трек 3 нет в базе данных
Трек 4 нет в базе данных
Трек 5 нет в базе данных
Трек 6 нет в базе данных
Трек 7 нет в базе данных
Трек 8 нет в базе данных
Трек 9 нет в базе данных
Трек 10 нет в базе данных
Трек 11 нет в базе данных
Трек 12 нет в базе данных
Трек 13 нет в базе данных
Трек 14 нет в базе данных
Трек 15 нет в базе данных
Трек 16 нет в базе данных
Ни одного трека нет в базе AccurateRip
Конец отчёта
Приватный:
Нет (DHT включён)
Размер:
261.65 Мб (274,360,372 байт) » файлов: 3
Участники:
0 раздают, 0 качают (0 участников всего)
Внешние участники:
1 раздают, 0 качают (1 участников всего) [ Обновить ]
No seeders - write a personal message to user M0p94ok. Нет сидеров - пишите личное сообщение пользователю M0p94ok.
03:54
47
Нет комментариев. Ваш будет первым!