Поиск

(Contemporary Jazz / SLAM) Jim Dvorak / Eric Mingus - This Isn't Sex - 1999, FLAC (tracks+.cue), lossless

(Contemporary Jazz / SLAM) Jim Dvorak / Eric Mingus - This Isn't Sex - 1999, FLAC (tracks+.cue), lossless
Треклист:
Jim Dvorak / Eric Mingus - This Isn't Sex
Жанр: Contemporary Jazz
Страна-производитель диска: England
Год издания диска: 1999
Издатель (лейбл): SLAM Productions
Номер по каталогу: SLAMCD 504
Аудиокодек: FLAC (*.flac)
Тип рипа: tracks+.cue
Битрейт аудио: lossless
Продолжительность: 00:51:11
Источник (релизер): собственный рип с оригинального Audio CD
Наличие сканов в содержимом раздачи: да
Трэклист:
1. I Can't wait For Brooklyn (0:55)
2. Blood On The Streets (4:05)
3. Brick Exposed (2:35)
4. This Isn't Sex (3:15)
5. Blue And White Lights (4:10)
6. The Phone Went Dead (4:32)
7. Baba O'Riley (2:03)
8. Sex As A Weapon (3:05)
9. It Isn't Good Poetry Til You Mention Sex (1:13)
10. I Broke Down (3:30)
11. Feel Good Factor (7:26)
12. Yuppie Status Symbol (3:35)
13. Butchie (3:01)
14. I Think Of You (3:09)
15. Chemical Attitude Adjustment (3:48)
Доп. информация:
Musicians:
Jim Dvorak - trumpet, pocket trumpet, vocals
Eric Mingus - words spoken, words sung, double bass
Recorded at Katz's Kitchen London Jan'99 © MCPS PRS by Jim Dvorak Eric Mingus
Jim Dvorak / Eric Mingus - This Isn't Sex allmusic.com
Jim Dvorak / Eric Mingus - This Isn't Sex discogs.com
 
Review
The mix of poetry and jazz has a checkered career, and after the 1950s, most of the efforts have been mediocre at best. This duo between trumpeter Jim Dvorak and wordsmith and bassist Eric Mingus brings the concept to the late 1990s with a compelling and inspiring performance that works on several levels. While there are whiffs of hip-hop and rap, this is not in any sense a commercial release. Instead, there is measure after measure of powerful trumpet (often pushing the edges) and some powerful and effective spoken word. This Mingus is a poet for the times, a conscience for a generation immersed in material values. He is also a fine bassist, and the two musicians create some entertaining jazz. Mingus' gruff voice contains elements of Jon Hendricks and Ken Nordine. The recording is a prime example of two plus two equals five – surprises abound and preconceived notions shatter.
Steve Loewy ~ AMG
 
... back ...
 
EAC extraction logfile from 13. January 2012, 11:29
Exact Audio Copy V0.99 prebeta 4 from 23. January 2008
EAC extraction logfile from 13. January 2012, 11:29
Jim Dvorak, Eric Mingus / This Isn't Sex
Used drive : Optiarc DVD RW AD-7260S Adapter: 2 ID: 0
Read mode : Secure
Utilize accurate stream : Yes
Defeat audio cache : Yes
Make use of C2 pointers : No
Read offset correction : 48
Overread into Lead-In and Lead-Out : No
Fill up missing offset samples with silence : Yes
Delete leading and trailing silent blocks : No
Null samples used in CRC calculations : Yes
Used interface : Installed external ASPI interface
Gap handling : Appended to previous track
Used output format : User Defined Encoder
Selected bitrate : 128 kBit/s
Quality : High
Add ID3 tag : No
Command line compressor : D:\Program Files\Exact Audio Copy\Flac\flac.exe
Additional command line options : -8 -V -T "ARTIST=%a" -T "TITLE=%t" -T "ALBUM=%g" -T "DATE=%y" -T "TRACKNUMBER=%n" -T "GENRE=%m" -T "COMMENT=EAC FLAC -8" %s
TOC of the extracted CD
Track | Start | Length | Start sector | End sector
---------------------------------------------------------
1 | 0:00.00 | 0:55.29 | 0 | 4153
2 | 0:55.29 | 4:09.43 | 4154 | 22871
3 | 5:04.72 | 2:39.16 | 22872 | 34812
4 | 7:44.13 | 3:18.04 | 34813 | 49666
5 | 11:02.17 | 4:12.66 | 49667 | 68632
6 | 15:15.08 | 4:37.62 | 68633 | 89469
7 | 19:52.70 | 2:07.36 | 89470 | 99030
8 | 22:00.31 | 3:09.06 | 99031 | 113211
9 | 25:09.37 | 1:17.20 | 113212 | 119006
10 | 26:26.57 | 3:33.40 | 119007 | 135021
11 | 30:00.22 | 7:30.21 | 135022 | 168792
12 | 37:30.43 | 3:35.46 | 168793 | 184963
13 | 41:06.14 | 3:05.24 | 184964 | 198862
14 | 44:11.38 | 3:10.54 | 198863 | 213166
15 | 47:22.17 | 3:49.53 | 213167 | 230394
Track 1
Filename G:\rutracker.org - rip by readab\Jim Dvorak, Eric Mingus - This Isn't Sex (1999)\01 - I Can't wait For Brooklyn.wav
Pre-gap length 0:00:02.00
Peak level 70.2 %
Track quality 100.0 %
Test CRC 0470A679
Copy CRC 0470A679
Track not present in AccurateRip database
Copy OK
Track 2
Filename G:\rutracker.org - rip by readab\Jim Dvorak, Eric Mingus - This Isn't Sex (1999)\02 - Blood On The Streets.wav
Peak level 99.1 %
Track quality 100.0 %
Test CRC 09E39111
Copy CRC 09E39111
Track not present in AccurateRip database
Copy OK
Track 3
Filename G:\rutracker.org - rip by readab\Jim Dvorak, Eric Mingus - This Isn't Sex (1999)\03 - Brick Exposed.wav
Peak level 86.7 %
Track quality 100.0 %
Test CRC 3FB2B848
Copy CRC 3FB2B848
Track not present in AccurateRip database
Copy OK
Track 4
Filename G:\rutracker.org - rip by readab\Jim Dvorak, Eric Mingus - This Isn't Sex (1999)\04 - This Isn't Sex.wav
Peak level 83.5 %
Track quality 100.0 %
Test CRC 8D9AE0CC
Copy CRC 8D9AE0CC
Track not present in AccurateRip database
Copy OK
Track 5
Filename G:\rutracker.org - rip by readab\Jim Dvorak, Eric Mingus - This Isn't Sex (1999)\05 - Blue And White Lights.wav
Peak level 88.2 %
Track quality 100.0 %
Test CRC 57FB3C7D
Copy CRC 57FB3C7D
Track not present in AccurateRip database
Copy OK
Track 6
Filename G:\rutracker.org - rip by readab\Jim Dvorak, Eric Mingus - This Isn't Sex (1999)\06 - The Phone Went Dead.wav
Peak level 93.6 %
Track quality 100.0 %
Test CRC 651F7DB9
Copy CRC 651F7DB9
Track not present in AccurateRip database
Copy OK
Track 7
Filename G:\rutracker.org - rip by readab\Jim Dvorak, Eric Mingus - This Isn't Sex (1999)\07 - Baba O'Riley.wav
Peak level 77.6 %
Track quality 99.9 %
Test CRC BD039137
Copy CRC BD039137
Track not present in AccurateRip database
Copy OK
Track 8
Filename G:\rutracker.org - rip by readab\Jim Dvorak, Eric Mingus - This Isn't Sex (1999)\08 - Sex As A Weapon.wav
Peak level 95.9 %
Track quality 100.0 %
Test CRC E6D2779E
Copy CRC E6D2779E
Track not present in AccurateRip database
Copy OK
Track 9
Filename G:\rutracker.org - rip by readab\Jim Dvorak, Eric Mingus - This Isn't Sex (1999)\09 - It Isn't Good Poetry Til You Mention Sex.wav
Peak level 89.3 %
Track quality 100.0 %
Test CRC E4D16D85
Copy CRC E4D16D85
Track not present in AccurateRip database
Copy OK
Track 10
Filename G:\rutracker.org - rip by readab\Jim Dvorak, Eric Mingus - This Isn't Sex (1999)\10 - I Broke Down.wav
Peak level 93.9 %
Track quality 99.9 %
Test CRC AF6BBC79
Copy CRC AF6BBC79
Track not present in AccurateRip database
Copy OK
Track 11
Filename G:\rutracker.org - rip by readab\Jim Dvorak, Eric Mingus - This Isn't Sex (1999)\11 - Feel Good Factor.wav
Peak level 74.5 %
Track quality 99.9 %
Test CRC E4D966BE
Copy CRC E4D966BE
Track not present in AccurateRip database
Copy OK
Track 12
Filename G:\rutracker.org - rip by readab\Jim Dvorak, Eric Mingus - This Isn't Sex (1999)\12 - Yuppie Status Symbol.wav
Peak level 93.6 %
Track quality 100.0 %
Test CRC E8DC37F0
Copy CRC E8DC37F0
Track not present in AccurateRip database
Copy OK
Track 13
Filename G:\rutracker.org - rip by readab\Jim Dvorak, Eric Mingus - This Isn't Sex (1999)\13 - Butchie.wav
Peak level 88.6 %
Track quality 100.0 %
Test CRC 74783F3E
Copy CRC 74783F3E
Track not present in AccurateRip database
Copy OK
Track 14
Filename G:\rutracker.org - rip by readab\Jim Dvorak, Eric Mingus - This Isn't Sex (1999)\14 - I Think Of You.wav
Peak level 96.9 %
Track quality 100.0 %
Test CRC 76BC2F8A
Copy CRC 76BC2F8A
Track not present in AccurateRip database
Copy OK
Track 15
Filename G:\rutracker.org - rip by readab\Jim Dvorak, Eric Mingus - This Isn't Sex (1999)\15 - Chemical Attitude Adjustment.wav
Peak level 90.8 %
Track quality 100.0 %
Test CRC FB38D37A
Copy CRC FB38D37A
Track not present in AccurateRip database
Copy OK
None of the tracks are present in the AccurateRip database
No errors occurred
End of status report
 
Содержание индексной карты (.CUE)
REM GENRE Jazz
REM DATE 1999
REM DISCID C90BFF0F
REM COMMENT "ExactAudioCopy v0.99pb4"
PERFORMER "Jim Dvorak, Eric Mingus"
TITLE "This Isn't Sex"
FILE "01 - I Cant wait For Brooklyn.wav" WAVE
TRACK 01 AUDIO
TITLE "I Cant wait For Brooklyn"
PERFORMER "Jim Dvorak, Eric Mingus"
FLAGS DCP
INDEX 01 00:00:00
FILE "02 - Blood On The Streets.wav" WAVE
TRACK 02 AUDIO
TITLE "Blood On The Streets"
PERFORMER "Jim Dvorak, Eric Mingus"
FLAGS DCP
INDEX 01 00:00:00
FILE "03 - Brick Exposed.wav" WAVE
TRACK 03 AUDIO
TITLE "Brick Exposed"
PERFORMER "Jim Dvorak, Eric Mingus"
FLAGS DCP
INDEX 01 00:00:00
FILE "04 - This Isnt Sex.wav" WAVE
TRACK 04 AUDIO
TITLE "This Isnt Sex"
PERFORMER "Jim Dvorak, Eric Mingus"
FLAGS DCP
INDEX 01 00:00:00
FILE "05 - Blue And White Lights.wav" WAVE
TRACK 05 AUDIO
TITLE "Blue And White Lights"
PERFORMER "Jim Dvorak, Eric Mingus"
FLAGS DCP
INDEX 01 00:00:00
FILE "06 - The Phone Went Dead.wav" WAVE
TRACK 06 AUDIO
TITLE "The Phone Went Dead"
PERFORMER "Jim Dvorak, Eric Mingus"
FLAGS DCP
INDEX 01 00:00:00
FILE "07 - Baba ORiley.wav" WAVE
TRACK 07 AUDIO
TITLE "Baba ORiley"
PERFORMER "Jim Dvorak, Eric Mingus"
FLAGS DCP
INDEX 01 00:00:00
FILE "08 - Sex As A Weapon.wav" WAVE
TRACK 08 AUDIO
TITLE "Sex As A Weapon"
PERFORMER "Jim Dvorak, Eric Mingus"
FLAGS DCP
INDEX 01 00:00:00
FILE "09 - It Isnt Good Poetry Til You Mention Sex.wav" WAVE
TRACK 09 AUDIO
TITLE "It Isnt Good Poetry Til You Mention Sex"
PERFORMER "Jim Dvorak, Eric Mingus"
FLAGS DCP
INDEX 01 00:00:00
FILE "10 - I Broke Down.wav" WAVE
TRACK 10 AUDIO
TITLE "I Broke Down"
PERFORMER "Jim Dvorak, Eric Mingus"
FLAGS DCP
INDEX 01 00:00:00
FILE "11 - Feel Good Factor.wav" WAVE
TRACK 11 AUDIO
TITLE "Feel Good Factor"
PERFORMER "Jim Dvorak, Eric Mingus"
FLAGS DCP
INDEX 01 00:00:00
FILE "12 - Yuppie Status Symbol.wav" WAVE
TRACK 12 AUDIO
TITLE "Yuppie Status Symbol"
PERFORMER "Jim Dvorak, Eric Mingus"
FLAGS DCP
INDEX 01 00:00:00
FILE "13 - Butchie.wav" WAVE
TRACK 13 AUDIO
TITLE "Butchie"
PERFORMER "Jim Dvorak, Eric Mingus"
FLAGS DCP
INDEX 01 00:00:00
FILE "14 - I Think Of You.wav" WAVE
TRACK 14 AUDIO
TITLE "I Think Of You"
PERFORMER "Jim Dvorak, Eric Mingus"
FLAGS DCP
INDEX 01 00:00:00
FILE "15 - Chemical Attitude Adjustment.wav" WAVE
TRACK 15 AUDIO
TITLE "Chemical Attitude Adjustment"
PERFORMER "Jim Dvorak, Eric Mingus"
FLAGS DCP
INDEX 01 00:00:00
Приватный:
Нет (DHT включён)
Размер:
254.42 Мб (266,777,549 байт) » файлов: 21
Участники:
0 раздают, 0 качают (0 участников всего)
Внешние участники:
1 раздают, 0 качают (1 участников всего) [ Обновить ]
No seeders - write a personal message to user M0p94ok. Нет сидеров - пишите личное сообщение пользователю M0p94ok.
03:53
64
Нет комментариев. Ваш будет первым!