Поиск

(Jazz) Trilok Gurtu - Kathak - 1998, FLAC (image+.cue), lossless

(Jazz) Trilok Gurtu - Kathak - 1998, FLAC (image+.cue), lossless
Треклист:
Trilok Gurtu - Kathak
Жанр: Jazz
Год выпуска диска: 1998
Производитель диска: France
Аудио кодек: FLAC
Тип рипа: image+.cue
Битрейт аудио: lossless
Продолжительность: 46:36
Trilok Gurtu drums, tabla, percussion, voice
Jaya Deva ganawa, voice, guitar
Kai Eckhardt de Camargo electric bass
Ravi Chary sitar, harmonium
Neneh Cherry voice on "Ganapati"
Shobha Gurtu voice on "You, Remember This" and "Brazilian"
Steve Lukather guitar on "Seven Brings Return"
Teodosii Spassov kaval on "Brazilian"
1 Ganapati
2 You, Remember This
3 Seven Brings Return
4 Shunyai
5 Who Knows The Mind
6 Kathak
7 Brazilian

 
EAC Report
Exact Audio Copy V0.99 prebeta 4 from 23. January 2008
EAC extraction logfile from 22. June 2008, 22:55
Trilok Gurtu / Kathak
Used drive : TSSTcorpCD/DVDW SH-S182M Adapter: 2 ID: 1
Read mode : Secure
Utilize accurate stream : Yes
Defeat audio cache : Yes
Make use of C2 pointers : No
Read offset correction : 6
Overread into Lead-In and Lead-Out : No
Fill up missing offset samples with silence : Yes
Delete leading and trailing silent blocks : No
Null samples used in CRC calculations : No
Used interface : Installed external ASPI interface
Used output format : User Defined Encoder
Selected bitrate : 768 kBit/s
Quality : High
Add ID3 tag : No
Command line compressor : C:\Program Files\Exact Audio Copy\FLAC\FLAC.EXE
Additional command line options : -6 -V -T "ARTIST=%a" -T "TITLE=%t" -T "ALBUM=%g" -T "DATE=%y" -T "TRACKNUMBER=%n" -T "GENRE=%m" -T "COMMENT=%e" %s -o %d
TOC of the extracted CD
Track | Start | Length | Start sector | End sector
---------------------------------------------------------
1 | 0:00.00 | 3:52.00 | 0 | 17399
2 | 3:52.00 | 5:43.27 | 17400 | 43151
3 | 9:35.27 | 8:28.00 | 43152 | 81251
4 | 18:03.27 | 8:29.54 | 81252 | 119480
5 | 26:33.06 | 8:46.55 | 119481 | 158985
6 | 35:19.61 | 6:38.04 | 158986 | 188839
7 | 41:57.65 | 4:37.55 | 188840 | 209669
Range status and errors
Selected range
Filename F:\z\Trilok Gurtu - Kathak.wav
Peak level 100.0 %
Range quality 100.0 %
Copy CRC CF2B9DFB
Copy OK
No errors occurred
AccurateRip summary
Track 1 cannot be verified as accurate (confidence 5) [3378AD1B], AccurateRip returned [7C6F5417]
Track 2 cannot be verified as accurate (confidence 5) [50C4E80C], AccurateRip returned [547AF06F]
Track 3 cannot be verified as accurate (confidence 5) [42ACBA65], AccurateRip returned [E70FF3E3]
Track 4 cannot be verified as accurate (confidence 5) [0ADA2646], AccurateRip returned [9D1DCE60]
Track 5 cannot be verified as accurate (confidence 5) [212B42CC], AccurateRip returned [1994D3E7]
Track 6 cannot be verified as accurate (confidence 5) [EC71F5DF], AccurateRip returned [233D99FC]
Track 7 cannot be verified as accurate (confidence 5) [5C75EEB4], AccurateRip returned [4D64E08D]
No tracks could be verified as accurate
You may have a different pressing from the one(s) in the database
End of status report

ТОРРЕНТ ПЕРЕЗАЛИТ 24.05.2017, 16:58 МСК.
Прошу взять новый торрент файл.
03:13
336
Нет комментариев. Ваш будет первым!