Поиск

(Jazz) Trilok Gurtu - The Glimpse - 1997, FLAC (image+.cue), lossless

(Jazz) Trilok Gurtu - The Glimpse - 1997, FLAC (image+.cue), lossless
Треклист:
Trilok Gurtu - The Glimpse
Жанр: Jazz
Год выпуска диска: 1997
Производитель диска: USA
Аудио кодек: FLAC
Тип рипа: image+.cue
Битрейт аудио: lossless
Продолжительность: 52:50

Trilok Gurtu drums, tabla, percussion, voice
Geetha Bennett veena, voice
Nando Carneiro guitar
Lars Danielsson bass, cello
Jaya Deva guitar, voice, gnaoua, qaraqaba
Andy Emler piano, harmonium
Paolo Fresu trumpet, flugelhorn
Teodosii Spassov kaval
1 Cherry Town
2 1 - 2 Beaucoup
3 Law Years
4 A Ilha do Caju
5 Future Heat
6 Glimpse
7 Don

 
EAC Report
Exact Audio Copy V0.99 prebeta 4 from 23. January 2008
EAC extraction logfile from 22. June 2008, 23:11
Trilok Gurtu / The Glimpse
Used drive : TSSTcorpCD/DVDW SH-S182M Adapter: 2 ID: 1
Read mode : Secure
Utilize accurate stream : Yes
Defeat audio cache : Yes
Make use of C2 pointers : No
Read offset correction : 6
Overread into Lead-In and Lead-Out : No
Fill up missing offset samples with silence : Yes
Delete leading and trailing silent blocks : No
Null samples used in CRC calculations : No
Used interface : Installed external ASPI interface
Used output format : User Defined Encoder
Selected bitrate : 768 kBit/s
Quality : High
Add ID3 tag : No
Command line compressor : C:\Program Files\Exact Audio Copy\FLAC\FLAC.EXE
Additional command line options : -6 -V -T "ARTIST=%a" -T "TITLE=%t" -T "ALBUM=%g" -T "DATE=%y" -T "TRACKNUMBER=%n" -T "GENRE=%m" -T "COMMENT=%e" %s -o %d
TOC of the extracted CD
Track | Start | Length | Start sector | End sector
---------------------------------------------------------
1 | 0:00.00 | 5:16.15 | 0 | 23714
2 | 5:16.15 | 5:45.70 | 23715 | 49659
3 | 11:02.10 | 7:53.02 | 49660 | 85136
4 | 18:55.12 | 6:34.65 | 85137 | 114751
5 | 25:30.02 | 10:52.03 | 114752 | 163654
6 | 36:22.05 | 6:49.42 | 163655 | 194371
7 | 43:11.47 | 9:38.02 | 194372 | 237723
Range status and errors
Selected range
Filename F:\z\Trilok Gurtu - The Glimpse.wav
Peak level 100.0 %
Range quality 100.0 %
Copy CRC 6EBCBF7F
Copy OK
No errors occurred
AccurateRip summary
Track 1 accurately ripped (confidence 2) [E6025C0C]
Track 2 accurately ripped (confidence 3) [970B48B3]
Track 3 accurately ripped (confidence 3) [AC9B56D4]
Track 4 accurately ripped (confidence 3) [611877C0]
Track 5 accurately ripped (confidence 3) [AA67A235]
Track 6 accurately ripped (confidence 3) [03B06EB8]
Track 7 accurately ripped (confidence 3) [579CF5D5]
All tracks accurately ripped
End of status report
ТОРРЕНТ ПЕРЕЗАЛИТ 24.05.2017, 17:00 МСК.
Прошу взять новый торрент файл.
02:12
298
Нет комментариев. Ваш будет первым!