Поиск

(Oriental Jazz) Rabih Abou-Khalil - Em Português - 2008, FLAC (image+.cue), lossless

(Oriental Jazz) Rabih Abou-Khalil - Em Português - 2008, FLAC (image+.cue), lossless
Rabih Abou-Khalil - Em Português
Жанр: Oriental Jazz
Год выпуска диска: 2008
Производитель диска: EC
Аудио кодек: FLAC
Тип рипа: image+.cue
Битрейт аудио: lossless
Продолжительность: 59:28
Rabih Abou-Khalil oud, composer
Ricardo Ribeiro vocals
Luciano Biondini accordion
Michel Godard tuba, serpent, bass
Jarrod Cagwin drums, percussion
Como Um Rio
No Mar Das Tuas Pernas
A Lua Num Quarto
Amarrado À Saudade
JÁ Nao Da Como Esta
Se O Meu Amor Me Pedisse
Quando TE Vejo Sorrir
Casa Da Mariquinhas
Beijos Ateus
A Gaivota Que TU ÉS
Jogo Da Vida
Adolescencîa Perdida
 
EAC Report
Exact Audio Copy V0.99 prebeta 4 from 23. January 2008
EAC extraction logfile from 7. August 2008, 22:21
Rabih Abou-Khalil / Em Portugês
Used drive : TSSTcorpCD/DVDW SH-S182M Adapter: 2 ID: 0
Read mode : Secure
Utilize accurate stream : Yes
Defeat audio cache : Yes
Make use of C2 pointers : No
Read offset correction : 6
Overread into Lead-In and Lead-Out : No
Fill up missing offset samples with silence : Yes
Delete leading and trailing silent blocks : No
Null samples used in CRC calculations : No
Used interface : Installed external ASPI interface
Used output format : User Defined Encoder
Selected bitrate : 1024 kBit/s
Quality : High
Add ID3 tag : No
Command line compressor : C:\Program Files\Exact Audio Copy\FLAC\FLAC.EXE
Additional command line options : -6 -V -T "ARTIST=%a" -T "TITLE=%t" -T "ALBUM=%g" -T "DATE=%y" -T "TRACKNUMBER=%n" -T "GENRE=%m" -T "COMMENT=%e" %s -o %d
TOC of the extracted CD
Track | Start | Length | Start sector | End sector
---------------------------------------------------------
1 | 0:00.00 | 6:08.27 | 0 | 27626
2 | 6:08.27 | 2:46.20 | 27627 | 40096
3 | 8:54.47 | 4:33.26 | 40097 | 60597
4 | 13:27.73 | 3:35.10 | 60598 | 76732
5 | 17:03.08 | 4:12.00 | 76733 | 95632
6 | 21:15.08 | 3:02.36 | 95633 | 109318
7 | 24:17.44 | 6:54.33 | 109319 | 140401
8 | 31:12.02 | 6:00.35 | 140402 | 167436
9 | 37:12.37 | 8:29.68 | 167437 | 205679
10 | 45:42.30 | 3:47.51 | 205680 | 222755
11 | 49:30.06 | 6:20.30 | 222756 | 251285
12 | 55:50.36 | 3:37.44 | 251286 | 267604
Range status and errors
Selected range
Filename F:\z\Rabih Abou-Khalil - Em Portuges.wav
Peak level 100.0 %
Range quality 100.0 %
Copy CRC 4FBB8EBC
Copy OK
No errors occurred
AccurateRip summary
Track 1 not present in database
Track 2 not present in database
Track 3 not present in database
Track 4 not present in database
Track 5 not present in database
Track 6 not present in database
Track 7 not present in database
Track 8 not present in database
Track 9 not present in database
Track 10 not present in database
Track 11 not present in database
Track 12 not present in database
None of the tracks are present in the AccurateRip database
End of status report
03:13
679
Нет комментариев. Ваш будет первым!