Вы используете незарегистрированную версию компонента "Вкладки"!

Поиск

(Jazz) Ted Sirota's Rebel Souls - Vs. The Forces Of Evil - 2000, FLAC (image+.cue), lossless

(Jazz) Ted Sirota's Rebel Souls - Vs. The Forces Of Evil - 2000, FLAC (image+.cue), lossless
Треклист:
Ted Sirota's Rebel Souls / Vs. The Forces Of Evil
Жанр: Avant-Garde Jazz
Страна-производитель диска: UK
Год издания: 2000
Издатель (лейбл): Naim Label
Номер по каталогу: naimcd051
Страна: USA
Аудиокодек: FLAC (*.flac)
Тип рипа: image+.cue
Битрейт аудио: lossless
Продолжительность: 00:52:09
Источник (релизер): ivoronen
Наличие сканов в содержимом раздачи: да
Треклист:
1. Grendel 8:39
2. Tight Rope 6:00
3. You Know Me 5:21
4. Tubby 7:12
5. Dig to China 3:07
6. Becky's Bash 7:59
7. Impengu Dek Bengikai 5:55
8. Wonder 7:56
 
Лог создания рипа
Exact Audio Copy V0.99 prebeta 5 from 4. May 2009
EAC extraction logfile from 21. December 2009, 22:41
Ted Sirota's Rebel Souls / Vs. The Forces Of Evil
Used drive : hp DVD-RAM GH40L Adapter: 0 ID: 1
Read mode : Secure
Utilize accurate stream : Yes
Defeat audio cache : Yes
Make use of C2 pointers : No
Read offset correction : 667
Overread into Lead-In and Lead-Out : No
Fill up missing offset samples with silence : Yes
Delete leading and trailing silent blocks : No
Null samples used in CRC calculations : Yes
Used interface : Installed external ASPI interface
Used output format : User Defined Encoder
Selected bitrate : 1024 kBit/s
Quality : High
Add ID3 tag : No
Command line compressor : C:\Program Files\Exact Audio Copy\Flac\flac.exe
Additional command line options : -6 -V -T "ARTIST=%a" -T "TITLE=%t" -T "ALBUM=%g" -T "DATE=%y" -T "TRACKNUMBER=%n" -T "GENRE=%m" -T "COMMENT=EAC FLAC -6" %s
TOC of the extracted CD
Track | Start | Length | Start sector | End sector
---------------------------------------------------------
1 | 0:00.00 | 8:39.67 | 0 | 38991
2 | 8:39.67 | 6:00.53 | 38992 | 66044
3 | 14:40.45 | 5:20.72 | 66045 | 90116
4 | 20:01.42 | 7:12.08 | 90117 | 122524
5 | 27:13.50 | 3:07.12 | 122525 | 136561
6 | 30:20.62 | 7:59.60 | 136562 | 172546
7 | 38:20.47 | 5:55.40 | 172547 | 199211
8 | 44:16.12 | 7:56.53 | 199212 | 234964
Range status and errors
Selected range
Filename C:\Users\Igor\Music\eac\Ted Sirota's Rebel Souls - Vs. The Forces Of Evil.wav
Peak level 92.9 %
Range quality 100.0 %
Test CRC 7D18E0F3
Copy CRC 7D18E0F3
Copy OK
No errors occurred
AccurateRip summary
Track 1 accurately ripped (confidence 1) [65D7827B]
Track 2 accurately ripped (confidence 1) [9620DA95]
Track 3 accurately ripped (confidence 1) [FF7293C3]
Track 4 accurately ripped (confidence 1) [5927D093]
Track 5 accurately ripped (confidence 1) [E5AAB498]
Track 6 accurately ripped (confidence 1) [FB4D7CB9]
Track 7 accurately ripped (confidence 1) [9F8C6A38]
Track 8 accurately ripped (confidence 1) [972A2C58]
All tracks accurately ripped
End of status report
 
Содержание индексной карты (.CUE)
REM GENRE "Naim 051"
REM DATE 2000
REM DISCID 5A0C3C08
REM COMMENT "ExactAudioCopy v0.99pb5"
PERFORMER "Ted Sirota's Rebel Souls"
TITLE "Vs. The Forces Of Evil"
FILE "Ted Sirota's Rebel Souls - Vs. The Forces Of Evil.flac" WAVE
TRACK 01 AUDIO
TITLE "Grendel"
PERFORMER "Ted Sirota's Rebel Souls"
INDEX 01 00:00:00
TRACK 02 AUDIO
TITLE "Tight Rope"
PERFORMER "Ted Sirota's Rebel Souls"
INDEX 01 08:39:67
TRACK 03 AUDIO
TITLE "You Know Me"
PERFORMER "Ted Sirota's Rebel Souls"
INDEX 01 14:40:45
TRACK 04 AUDIO
TITLE "Tubby"
PERFORMER "Ted Sirota's Rebel Souls"
INDEX 01 20:01:42
TRACK 05 AUDIO
TITLE "Dig to China"
PERFORMER "Ted Sirota's Rebel Souls"
INDEX 01 27:13:50
TRACK 06 AUDIO
TITLE "Becky's Bash"
PERFORMER "Ted Sirota's Rebel Souls"
INDEX 01 30:20:62
TRACK 07 AUDIO
TITLE "Impengu Dek Bengikai"
PERFORMER "Ted Sirota's Rebel Souls"
INDEX 01 38:20:47
TRACK 08 AUDIO
TITLE "Wonder"
PERFORMER "Ted Sirota's Rebel Souls"
INDEX 01 44:16:12
Доп. информация: http://www.naimlabel.com/recording-vs-the-forces-of-evil.aspx
 
Об исполнителе (группе)
http://www.naimlabel.com/artist-ted-sirota-rebel-souls.aspx
Chicago based drummer and bandleader Ted Sirota and his throng of Rebel Souls play avant-garde post-bop that isn't for the faint of heart. Their music is their weapon and they point and shoot at oppressors and reactionaries past and present.
 
Об альбоме (сборнике)
The third and most recent Naim Label recording of the Rebel Souls features the inspiring addition of Chicago's Geoff Bradfield (tenor/alto/bass clarinet) to help form yet another electrifying and innovative listening experience. Sirota's vision of combining two saxes (often in unison or call and response) is something that has evolved since into what makes the Rebel Souls so identifiable in sound...as if they weren't already!
 
Состав
Kevin Kizer - tenor saxophone, clarinet
Rob Mazurek - cornet
Jeff Parker - guitar
Noel Kupersmith - bass
Ted Sirota - drums
Geof Bradfield - tenor and alto saxophone, bass clarinet
Any questions -> support@pro-jazz.com. По всем вопросам пишите -> support@pro-jazz.com
16:52
211
Нет комментариев. Ваш будет первым!