Вы используете незарегистрированную версию компонента "Вкладки"!

Поиск

(Free Jazz) Albert Ayler - Nuits de la Fondation Maeght 1970 - 2005, FLAC (tracks+.cue), lossless

Треклист:
Albert Ayler / Nuits de la Fondation Maeght 1970
Жанр: Free Jazz
Страна-производитель диска: ??
Год издания: 2005
Издатель (лейбл): Lone Hill Jazz
Номер по каталогу: LHJ10215
Страна: USA
Аудиокодек: FLAC (*.flac)
Тип рипа: tracks+.cue
Битрейт аудио: lossless
Продолжительность: 01:14:01
Источник (релизер): вот.сиди (ChupacabraRAWR) -> bnepal
Наличие сканов в содержимом раздачи: нет
Треклист:
1. In Heart Only 5:16
2. Spirits 15:05
3. Holy Family 11:44
4. Spirits Rejoice 7:26
5. Truth Is Marching In 8:10
6. Universal Message 8:17
7. Spiritual Reunion 7:57
8. Music Is The Healing Force Of The Universe 10:00
Состав:
Albert Ayler (soprano, tenor saxophones)
Mary Parks (soprano saxophone, vocals)
Call Cobbs (piano)
Steve Tintweiss (bass)
Allen Blairman (drums)
All tracks recorded at the Fondation Maeght, St. Paul de Vence, France on July 25 & 27, 1970.
Tracks 1-4 originally issued on LP as 'Nuits De La Fondation Maeght Volume 1' (Shandar SR10.000).
Tracks 5-8 originally issued on LP as 'Nuits De La Fondation Maeght Volume 2' (Shandar SR10.004).
 
Об альбоме
Review by Scott Yanow

A little over three months before he was found drowned, Ayler was caught performing in concert at the height of his powers. Unlike his Impulse releases which often featured him trying to incorporate commercial elements into his music, the release from the European label Jazz View (the first of two CDs) allows Ayler to stretch out and "preach" in his emotional and unique style with just sparse backing (pianist Call Cobbs, bassist Steve Tintweiss and drummer Allen Blairman). This and the second volume would be Albert Ayler's final recordings and are quite memorable.
 
XLD extraction logfile from 2010-04-29 12:55:00
X Lossless Decoder version 20100424 (118.0)
XLD extraction logfile from 2010-04-29 12:55:00 -0700
Albert Ayler / Nuits De La Fondation Maeght 1970
Used drive : MATSHITA DVD-R UJ-867 (revision HA13)
Use cdparanoia mode : YES (CDParanoia III 10.2 engine)
Disable audio cache : OK for the drive with cache less than 2750KB
Make use of C2 pointers : NO
Read offset correction : 102
Max retry count : 100
TOC of the extracted CD
Track | Start | Length | Start sector | End sector
---------------------------------------------------------
1 | 00:00:00 | 05:17:31 | 0 | 23805
2 | 05:17:31 | 15:00:48 | 23806 | 91353
3 | 20:18:04 | 11:46:36 | 91354 | 144339
4 | 32:04:40 | 07:29:63 | 144340 | 178077
5 | 39:34:28 | 08:09:45 | 178078 | 214797
6 | 47:43:73 | 08:17:36 | 214798 | 252108
7 | 56:01:34 | 07:26:72 | 252109 | 285630
8 | 63:28:31 | 10:32:25 | 285631 | 333055
All Tracks
Album gain : -8.33 dB
Peak : 1.000000
Track 01
Filename : /Users/Matt/Desktop/01 - In Heart Only.flac
/Users/Matt/Desktop/01 - In Heart Only.mp3
Pre-gap length : 00:02:00
Track gain : -5.66 dB
Peak : 0.971405
CRC32 hash (test run) : CC38DFBE
CRC32 hash : CC38DFBE
CRC32 hash (skip zero) : 3B0A8CD0
AccurateRip signature : A36CCD26
->Track not present in AccurateRip database.
Statistics
Read error : 0
Skipped (treated as error) : 0
Edge jitter error (maybe fixed) : 0
Atom jitter error (maybe fixed) : 0
Drift error (maybe fixed) : 0
Dropped bytes error (maybe fixed) : 0
Duplicated bytes error (maybe fixed) : 0
Inconsistency in error sectors : 0
Track 02
Filename : /Users/Matt/Desktop/02 - Spirits.flac
/Users/Matt/Desktop/02 - Spirits.mp3
Track gain : -6.66 dB
Peak : 1.000000
CRC32 hash (test run) : 3A5B3BAA
CRC32 hash : 3A5B3BAA
CRC32 hash (skip zero) : D93AB565
AccurateRip signature : 4903BC85
->Track not present in AccurateRip database.
Statistics
Read error : 0
Skipped (treated as error) : 0
Edge jitter error (maybe fixed) : 0
Atom jitter error (maybe fixed) : 0
Drift error (maybe fixed) : 0
Dropped bytes error (maybe fixed) : 0
Duplicated bytes error (maybe fixed) : 0
Inconsistency in error sectors : 0
Track 03
Filename : /Users/Matt/Desktop/03 - Holy Family.flac
/Users/Matt/Desktop/03 - Holy Family.mp3
Track gain : -10.12 dB
Peak : 1.000000
CRC32 hash (test run) : DB273B20
CRC32 hash : DB273B20
CRC32 hash (skip zero) : E8B0C561
AccurateRip signature : 26747E38
->Track not present in AccurateRip database.
Statistics
Read error : 0
Skipped (treated as error) : 0
Edge jitter error (maybe fixed) : 0
Atom jitter error (maybe fixed) : 0
Drift error (maybe fixed) : 0
Dropped bytes error (maybe fixed) : 0
Duplicated bytes error (maybe fixed) : 0
Inconsistency in error sectors : 0
Track 04
Filename : /Users/Matt/Desktop/04 - Spirits Rejoice.flac
/Users/Matt/Desktop/04 - Spirits Rejoice.mp3
Track gain : -6.81 dB
Peak : 0.868317
CRC32 hash (test run) : F32C7651
CRC32 hash : F32C7651
CRC32 hash (skip zero) : 9424583D
AccurateRip signature : A3646A35
->Track not present in AccurateRip database.
Statistics
Read error : 0
Skipped (treated as error) : 0
Edge jitter error (maybe fixed) : 1
Atom jitter error (maybe fixed) : 0
Drift error (maybe fixed) : 0
Dropped bytes error (maybe fixed) : 0
Duplicated bytes error (maybe fixed) : 0
Inconsistency in error sectors : 0
Track 05
Filename : /Users/Matt/Desktop/05 - Truth Is Marching In.flac
/Users/Matt/Desktop/05 - Truth Is Marching In.mp3
Track gain : -7.37 dB
Peak : 0.995361
CRC32 hash (test run) : 3E274C01
CRC32 hash : 3E274C01
CRC32 hash (skip zero) : 2B8E750C
AccurateRip signature : 5C0FBA5F
->Track not present in AccurateRip database.
Statistics
Read error : 0
Skipped (treated as error) : 0
Edge jitter error (maybe fixed) : 0
Atom jitter error (maybe fixed) : 0
Drift error (maybe fixed) : 0
Dropped bytes error (maybe fixed) : 0
Duplicated bytes error (maybe fixed) : 0
Inconsistency in error sectors : 0
Track 06
Filename : /Users/Matt/Desktop/06 - Universal Message.flac
/Users/Matt/Desktop/06 - Universal Message.mp3
Track gain : -5.21 dB
Peak : 0.999969
CRC32 hash (test run) : E4B4E4FA
CRC32 hash : E4B4E4FA
CRC32 hash (skip zero) : 8DB00A80
AccurateRip signature : B8E3E936
->Track not present in AccurateRip database.
Statistics
Read error : 0
Skipped (treated as error) : 0
Edge jitter error (maybe fixed) : 0
Atom jitter error (maybe fixed) : 0
Drift error (maybe fixed) : 0
Dropped bytes error (maybe fixed) : 0
Duplicated bytes error (maybe fixed) : 0
Inconsistency in error sectors : 0
Track 07
Filename : /Users/Matt/Desktop/07 - Spiritual Reunion.flac
/Users/Matt/Desktop/07 - Spiritual Reunion.mp3
Track gain : -8.57 dB
Peak : 0.999969
CRC32 hash (test run) : 1609E865
CRC32 hash : 1609E865
CRC32 hash (skip zero) : 67F01096
AccurateRip signature : 8E5888B2
->Track not present in AccurateRip database.
Statistics
Read error : 0
Skipped (treated as error) : 0
Edge jitter error (maybe fixed) : 0
Atom jitter error (maybe fixed) : 0
Drift error (maybe fixed) : 0
Dropped bytes error (maybe fixed) : 0
Duplicated bytes error (maybe fixed) : 0
Inconsistency in error sectors : 0
Track 08
Filename : /Users/Matt/Desktop/08 - Music Is The Healing Force Of The Universe.flac
/Users/Matt/Desktop/08 - Music Is The Healing Force Of The Universe.mp3
Track gain : -8.69 dB
Peak : 1.000000
CRC32 hash (test run) : E33A67A9
CRC32 hash : E33A67A9
CRC32 hash (skip zero) : 98AAAC82
AccurateRip signature : 9A2602C9
->Track not present in AccurateRip database.
Statistics
Read error : 0
Skipped (treated as error) : 0
Edge jitter error (maybe fixed) : 0
Atom jitter error (maybe fixed) : 0
Drift error (maybe fixed) : 0
Dropped bytes error (maybe fixed) : 0
Duplicated bytes error (maybe fixed) : 0
Inconsistency in error sectors : 0
No errors occurred
End of status report
 
Содержание индексной карты (.CUE) с убранными путями (edit)
TITLE "Nuits De La Fondation Maeght 1970"
PERFORMER "Albert Ayler"
REM GENRE "Jazz"
REM DATE 1970
REM REPLAYGAIN_ALBUM_GAIN -8.33 dB
REM REPLAYGAIN_ALBUM_PEAK 1.000000
FILE "01 - In Heart Only.wav" WAVE
TRACK 01 AUDIO
TITLE "In Heart Only"
REM REPLAYGAIN_TRACK_GAIN -5.66 dB
REM REPLAYGAIN_TRACK_PEAK 0.971405
INDEX 01 00:00:00
FILE "02 - Spirits.wav" WAVE
TRACK 02 AUDIO
TITLE "Spirits"
REM REPLAYGAIN_TRACK_GAIN -6.66 dB
REM REPLAYGAIN_TRACK_PEAK 1.000000
INDEX 01 00:00:00
FILE "03 - Holy Family.wav" WAVE
TRACK 03 AUDIO
TITLE "Holy Family"
REM REPLAYGAIN_TRACK_GAIN -10.12 dB
REM REPLAYGAIN_TRACK_PEAK 1.000000
INDEX 01 00:00:00
FILE "04 - Spirits Rejoice.wav" WAVE
TRACK 04 AUDIO
TITLE "Spirits Rejoice"
REM REPLAYGAIN_TRACK_GAIN -6.81 dB
REM REPLAYGAIN_TRACK_PEAK 0.868317
INDEX 01 00:00:00
FILE "05 - Truth Is Marching In.wav" WAVE
TRACK 05 AUDIO
TITLE "Truth Is Marching In"
REM REPLAYGAIN_TRACK_GAIN -7.37 dB
REM REPLAYGAIN_TRACK_PEAK 0.995361
INDEX 01 00:00:00
FILE "06 - Universal Message.wav" WAVE
TRACK 06 AUDIO
TITLE "Universal Message"
REM REPLAYGAIN_TRACK_GAIN -5.21 dB
REM REPLAYGAIN_TRACK_PEAK 0.999969
INDEX 01 00:00:00
FILE "07 - Spiritual Reunion.wav" WAVE
TRACK 07 AUDIO
TITLE "Spiritual Reunion"
REM REPLAYGAIN_TRACK_GAIN -8.57 dB
REM REPLAYGAIN_TRACK_PEAK 0.999969
INDEX 01 00:00:00
FILE "08 - Music Is The Healing Force Of The Universe.wav" WAVE
TRACK 08 AUDIO
TITLE "Music Is The Healing Force Of The Universe"
REM REPLAYGAIN_TRACK_GAIN -8.69 dB
REM REPLAYGAIN_TRACK_PEAK 1.000000
INDEX 01 00:00:00
 
Лог проверки качества
AUDIOCHECKER v2.0 beta (build 457) - by Dester - opdester@freemail.hu
~~~~~~~~~~~~~~~~~~~~~~~~~~~~~~~~~~
-=== DO NOT EDIT THIS FILE! ===-
Path: ...\Albert Ayler - Nuits De La Fondation Maeght 1970 (Flac)
1 -=- 01 - In Heart Only.flac -=- CDDA (100%)
2 -=- 02 - Spirits.flac -=- CDDA (100%)
3 -=- 03 - Holy Family.flac -=- CDDA (100%)
4 -=- 04 - Spirits Rejoice.flac -=- CDDA (100%)
5 -=- 05 - Truth Is Marching In.flac -=- CDDA (99%)
6 -=- 06 - Universal Message.flac -=- CDDA (100%)
7 -=- 07 - Spiritual Reunion.flac -=- CDDA (100%)
8 -=- 08 - Music Is The Healing Force Of The Universe.flac -=- CDDA (99%)
Summary 99,75% CDDA
227397316
Доп. информация: Восстановление раздачи из архива -- http://rutracker.org/forum/viewtopic.php?t=3095091
Проверил: на вате этот рип по неизвестной причине заменён другим, причём худшим (с логом от образа).
Так что название лейбла (испанского переиздающего) и номер я беру из архивной раздачи. У меня есть маленькие сканы от более раннего издания: Water Music 2002 года:
 
back
(а front этого издания -- в раздаче, единственная картинка)
Также для информации -- мутные фото обложек оригинальных пластинок:
 
LP cover
 
LP Vol. 1
 
LP Vol. 2
Any questions - support@pro-jazz.com. Есть вопросы - support@pro-jazz.com
16:51
291
Нет комментариев. Ваш будет первым!