Вы используете незарегистрированную версию компонента "Вкладки"!

Поиск

(Free Improvisation, Altri Suoni) L'Invisible Trio (Jacques Siron, Jean-Jacques Pedretti) - L'Invisible Trio - 1999, FLAC (tracks+.cue), lossless

(Free Improvisation, Altri Suoni) L'Invisible Trio (Jacques Siron, Jean-Jacques Pedretti) - L'Invisible Trio - 1999, FLAC (tracks+.cue), lossless
Треклист:
L'Invisible Trio / L'Invisible Trio
Жанр: Free Improvisation, Altri Suoni
Страна-производитель диска: Switzerland
Год издания: 1999
Издатель (лейбл): Altri Suoni
Номер по каталогу: AS 044
Аудиокодек: FLAC (*.flac)
Тип рипа: tracks+.cue
Битрейт аудио: lossless
Продолжительность: 47:06
Источник (релизер): Max Monteiro
Наличие сканов в содержимом раздачи: нет
Треклист:
01. Lever de plume (à la nuit tombante) 4:06
02. Creux d’oreille 2:46
03. Cave de l’âme 4:53
04. Descente dans un trou de mon crâne 1:13
05. Toit d’un monde invisible 4:46
06. Méditation boisée 2:03
07. Combat de fantômes 2:42
08. Fluides infernaux 2:48
09. Sumo Blues 2:55
10. Fêlure d’émail (sortie de cauchemar) 3:05
11. Chute infernale 1:30
12. Temple du sommeil (R.M. in Langstrasse) 2:31
13. Longue marche vers le songe 2:49
14. Portrait de Belzébuth 2:30
15. Zoom sur une caresse 5:03
16. Dernier courant d’air avant le corbillard 1:27
All tunes by Jacques Siron – Jean-Jacques Pedretti.
The music is improvised without premeditation, without overdubs.
Recorded on July 2 & 3, 1996 in Genève, Switzerland.
Jacques Siron – Double Bass, Voice
Jean-Jacques Pedretti – Trombone
 
Лог создания рипа
Exact Audio Copy V1.0 beta 3 from 29. August 2011
EAC extraction logfile from 3. August 2013, 10:53
L'Invisible Trio / L'Invisible Trio
Used drive : SlimtypeeNAU508 5 Adapter: 1 ID: 0
Read mode : Secure
Utilize accurate stream : Yes
Defeat audio cache : Yes
Make use of C2 pointers : No
Read offset correction : 6
Overread into Lead-In and Lead-Out : No
Fill up missing offset samples with silence : Yes
Delete leading and trailing silent blocks : No
Null samples used in CRC calculations : Yes
Used interface : Native Win32 interface for Win NT & 2000
Gap handling : Appended to previous track
Used output format : User Defined Encoder
Selected bitrate : 768 kBit/s
Quality : High
Add ID3 tag : No
Command line compressor : C:\Program Files (x86)\Exact Audio Copy\Flac\flac.exe
Additional command line options : -8 -V -T "ARTIST=%artist%" -T "TITLE=%title%" -T "ALBUM=%albumtitle%" -T "DATE=%year%" -T "TRACKNUMBER=%tracknr%" -T "GENRE=%genre%" -T "PERFORMER=%albuminterpret%" -T "COMPOSER=%composer%" %haslyrics%--tag-from-file=LYRICS="%lyricsfile%"%haslyrics% -T "ALBUMARTIST=%albumartist%" -T "DISCNUMBER=%cdnumber%" -T "TOTALDISCS=%totalcds%" -T "TOTALTRACKS=%numtracks%" -T "COMMENT=%comment%" %source% -o %dest%
TOC of the extracted CD
Track | Start | Length | Start sector | End sector
---------------------------------------------------------
1 | 0:00.00 | 4:06.10 | 0 | 18459
2 | 4:06.10 | 2:46.03 | 18460 | 30912
3 | 6:52.13 | 4:53.02 | 30913 | 52889
4 | 11:45.15 | 1:12.51 | 52890 | 58340
5 | 12:57.66 | 4:46.06 | 58341 | 79796
6 | 17:43.72 | 2:02.57 | 79797 | 89003
7 | 19:46.54 | 2:41.58 | 89004 | 101136
8 | 22:28.37 | 2:47.53 | 101137 | 113714
9 | 25:16.15 | 2:55.03 | 113715 | 126842
10 | 28:11.18 | 3:04.71 | 126843 | 140713
11 | 31:16.14 | 1:30.25 | 140714 | 147488
12 | 32:46.39 | 2:30.62 | 147489 | 158800
13 | 35:17.26 | 2:49.15 | 158801 | 171490
14 | 38:06.41 | 2:29.44 | 171491 | 182709
15 | 40:36.10 | 5:03.32 | 182710 | 205466
16 | 45:39.42 | 1:26.47 | 205467 | 211963
Track 1
Filename C:\EAC rips\01 - Lever de plume (à la nuit tombante).wav
Pre-gap length 0:00:02.00
Peak level 35.9 %
Extraction speed 1.7 X
Track quality 100.0 %
Test CRC 869A6FE1
Copy CRC 869A6FE1
Track not present in AccurateRip database
Copy OK
Track 2
Filename C:\EAC rips\02 - Creux d'oreille.wav
Peak level 81.2 %
Extraction speed 1.8 X
Track quality 100.0 %
Test CRC 1B692E0D
Copy CRC 1B692E0D
Track not present in AccurateRip database
Copy OK
Track 3
Filename C:\EAC rips\03 - Cave de l'âme.wav
Peak level 76.9 %
Extraction speed 2.1 X
Track quality 100.0 %
Test CRC 5592C948
Copy CRC 5592C948
Track not present in AccurateRip database
Copy OK
Track 4
Filename C:\EAC rips\04 - Descente dans un trou de mon crâne.wav
Peak level 81.2 %
Extraction speed 0.9 X
Track quality 99.8 %
Test CRC 11B4FD3B
Copy CRC 11B4FD3B
Track not present in AccurateRip database
Copy OK
Track 5
Filename C:\EAC rips\05 - Toit d'un monde invisible.wav
Pre-gap length 0:00:02.00
Peak level 40.2 %
Extraction speed 2.3 X
Track quality 100.0 %
Test CRC 9E2B729B
Copy CRC 9E2B729B
Track not present in AccurateRip database
Copy OK
Track 6
Filename C:\EAC rips\06 - Méditation boisée.wav
Pre-gap length 0:00:02.00
Peak level 28.8 %
Extraction speed 2.1 X
Track quality 100.0 %
Test CRC FD276847
Copy CRC FD276847
Track not present in AccurateRip database
Copy OK
Track 7
Filename C:\EAC rips\07 - Combat de fantômes.wav
Peak level 81.2 %
Extraction speed 2.0 X
Track quality 100.0 %
Test CRC 34166FB5
Copy CRC 34166FB5
Track not present in AccurateRip database
Copy OK
Track 8
Filename C:\EAC rips\08 - Fluides infernaux.wav
Pre-gap length 0:00:02.00
Peak level 81.2 %
Extraction speed 2.4 X
Track quality 100.0 %
Test CRC 202CF7CC
Copy CRC 202CF7CC
Track not present in AccurateRip database
Copy OK
Track 9
Filename C:\EAC rips\09 - Sumo blues.wav
Pre-gap length 0:00:02.00
Peak level 81.2 %
Extraction speed 2.5 X
Track quality 100.0 %
Test CRC 0F71FEDC
Copy CRC 0F71FEDC
Track not present in AccurateRip database
Copy OK
Track 10
Filename C:\EAC rips\10 - Fêlure d'émail (sortie de cauchemar).wav
Peak level 80.8 %
Extraction speed 1.9 X
Track quality 99.9 %
Test CRC 084751AA
Copy CRC 084751AA
Track not present in AccurateRip database
Copy OK
Track 11
Filename C:\EAC rips\11 - Chute infernale.wav
Pre-gap length 0:00:02.00
Peak level 81.2 %
Extraction speed 2.2 X
Track quality 100.0 %
Test CRC ABAADE8D
Copy CRC ABAADE8D
Track not present in AccurateRip database
Copy OK
Track 12
Filename C:\EAC rips\12 - Temple du sommeil (R.M. in Langstrasse).wav
Pre-gap length 0:00:01.00
Peak level 52.2 %
Extraction speed 2.6 X
Track quality 100.0 %
Test CRC 8EE5ADFD
Copy CRC 8EE5ADFD
Track not present in AccurateRip database
Copy OK
Track 13
Filename C:\EAC rips\13 - Longue marche vers le songe.wav
Peak level 81.2 %
Extraction speed 2.7 X
Track quality 100.0 %
Test CRC 82F92FC6
Copy CRC 82F92FC6
Track not present in AccurateRip database
Copy OK
Track 14
Filename C:\EAC rips\14 - Portrait de Belzébuth.wav
Peak level 81.2 %
Extraction speed 2.7 X
Track quality 100.0 %
Test CRC F981856F
Copy CRC F981856F
Track not present in AccurateRip database
Copy OK
Track 15
Filename C:\EAC rips\15 - Zoom sur une caresse.wav
Peak level 65.1 %
Extraction speed 2.5 X
Track quality 99.9 %
Test CRC 4170AF31
Copy CRC 4170AF31
Track not present in AccurateRip database
Copy OK
Track 16
Filename C:\EAC rips\16 - Dernier courant d'air avant le corbillard.wav
Peak level 81.2 %
Extraction speed 2.5 X
Track quality 100.0 %
Test CRC 60F4EDA3
Copy CRC 60F4EDA3
Track not present in AccurateRip database
Copy OK
None of the tracks are present in the AccurateRip database
No errors occurred
End of status report
---- CUETools DB Plugin V2.1.4
[CTDB TOCID: l.KTDoSm5dpM4n0GcW1LZLxSGu0-] disk not present in database
Submit result: l.KTDoSm5dpM4n0GcW1LZLxSGu0- has been uploaded
==== Log checksum B962CF19DCC42473E71BEA49C109DD3A006E3898D81C235809AFBA1107E91BE6 ====
 
Содержание индексной карты (.CUE)
REM GENRE Jazz
REM DATE 1999
REM DISCID F70B0A10
REM COMMENT "ExactAudioCopy v1.0b3"
CATALOG 7619993000442
PERFORMER "L'Invisible Trio"
TITLE "L'Invisible Trio"
FILE "01 - Lever de plume (à la nuit tombante).wav" WAVE
TRACK 01 AUDIO
TITLE "Lever de plume (à la nuit tombante)"
PERFORMER "L'Invisible Trio"
ISRC CH1889904401
INDEX 01 00:00:00
FILE "02 - Creux d'oreille.wav" WAVE
TRACK 02 AUDIO
TITLE "Creux d'oreille"
PERFORMER "L'Invisible Trio"
ISRC CH1889904402
INDEX 01 00:00:00
FILE "03 - Cave de l'âme.wav" WAVE
TRACK 03 AUDIO
TITLE "Cave de l'âme"
PERFORMER "L'Invisible Trio"
ISRC CH1889904403
INDEX 01 00:00:00
FILE "04 - Descente dans un trou de mon crâne.wav" WAVE
TRACK 04 AUDIO
TITLE "Descente dans un trou de mon crâne"
PERFORMER "L'Invisible Trio"
ISRC CH1889904404
INDEX 01 00:00:00
TRACK 05 AUDIO
TITLE "Toit d'un monde invisible"
PERFORMER "L'Invisible Trio"
ISRC CH1889904405
INDEX 00 01:10:51
FILE "05 - Toit d'un monde invisible.wav" WAVE
INDEX 01 00:00:00
TRACK 06 AUDIO
TITLE "Méditation boisée"
PERFORMER "L'Invisible Trio"
ISRC CH1889904406
INDEX 00 04:44:06
FILE "06 - Méditation boisée.wav" WAVE
INDEX 01 00:00:00
FILE "07 - Combat de fantômes.wav" WAVE
TRACK 07 AUDIO
TITLE "Combat de fantômes"
PERFORMER "L'Invisible Trio"
ISRC CH1889904407
INDEX 01 00:00:00
TRACK 08 AUDIO
TITLE "Fluides infernaux"
PERFORMER "L'Invisible Trio"
ISRC CH1889904408
INDEX 00 02:39:58
FILE "08 - Fluides infernaux.wav" WAVE
INDEX 01 00:00:00
TRACK 09 AUDIO
TITLE "Sumo blues"
PERFORMER "L'Invisible Trio"
ISRC CH1889904409
INDEX 00 02:45:53
FILE "09 - Sumo blues.wav" WAVE
INDEX 01 00:00:00
FILE "10 - Fêlure d'émail (sortie de cauchemar).wav" WAVE
TRACK 10 AUDIO
TITLE "Fêlure d'émail (sortie de cauchemar)"
PERFORMER "L'Invisible Trio"
ISRC CH1889904410
INDEX 01 00:00:00
TRACK 11 AUDIO
TITLE "Chute infernale"
PERFORMER "L'Invisible Trio"
ISRC CH1889904411
INDEX 00 03:02:71
FILE "11 - Chute infernale.wav" WAVE
INDEX 01 00:00:00
TRACK 12 AUDIO
TITLE "Temple du sommeil (R.M. in Langstrasse)"
PERFORMER "L'Invisible Trio"
ISRC CH1889904412
INDEX 00 01:29:25
FILE "12 - Temple du sommeil (R.M. in Langstrasse).wav" WAVE
INDEX 01 00:00:00
FILE "13 - Longue marche vers le songe.wav" WAVE
TRACK 13 AUDIO
TITLE "Longue marche vers le songe"
PERFORMER "L'Invisible Trio"
ISRC CH1889904413
INDEX 01 00:00:00
FILE "14 - Portrait de Belzébuth.wav" WAVE
TRACK 14 AUDIO
TITLE "Portrait de Belzébuth"
PERFORMER "L'Invisible Trio"
ISRC CH1889904414
INDEX 01 00:00:00
FILE "15 - Zoom sur une caresse.wav" WAVE
TRACK 15 AUDIO
TITLE "Zoom sur une caresse"
PERFORMER "L'Invisible Trio"
ISRC CH1889904415
INDEX 01 00:00:00
FILE "16 - Dernier courant d'air avant le corbillard.wav" WAVE
TRACK 16 AUDIO
TITLE "Dernier courant d'air avant le corbillard"
PERFORMER "L'Invisible Trio"
ISRC CH1889904416
INDEX 01 00:00:00
По всем вопросам пишите личное сообщение пользователю M0p94ok.
16:50
184
Нет комментариев. Ваш будет первым!