Вы используете незарегистрированную версию компонента "Вкладки"!

Поиск

(Free Jazz, Contemporary Jazz, Enja Records) Vincent Courtois, Marc Ducret, Dominique Pifarely - The Fitting Room - 2001, FLAC (tracks+.cue), lossless

(Free Jazz, Contemporary Jazz, Enja Records) Vincent Courtois, Marc Ducret, Dominique Pifarely - The Fitting Room - 2001, FLAC (tracks+.cue), lossless
Треклист:
Vincent Courtois, Marc Ducret, Dominique Pifarely / The Fitting Room
Жанр: Free Jazz, Contemporary Jazz, Enja Records
Страна-производитель диска: Germany
Год издания: 2001
Издатель (лейбл): Enja Records
Номер по каталогу: ENJ-9411 2
Аудиокодек: FLAC (*.flac)
Тип рипа: tracks+.cue
Битрейт аудио: lossless
Продолжительность: 44:00
Источник (релизер): Max Monteiro
Наличие сканов в содержимом раздачи: нет
Треклист:
1. Céline (part 1, part 2, part 3) 14:19
2. Oranges amères 2:01
3. Homère s’arrange 3:24
4. Miroirs 2:25
5. The Fitting Room 5:36
6. Par les gouffres 3:03
7. Tom 3:30
8. Le III 6:46
9. Vitrines 2:56
All compositions by Vincent Courtois except 2 by Vincent Courtois & Marc Ducret, 3 & 9 by Vincent Courtois, Marc Ducret & Dominique Pifarely, 8 by Marc Ducret.
Recorded in December 2000 at « Le Triton », Les Lilas, France.
Vincent Courtois – Cello
Marc Ducret – 6 & 12 Strings Guitars
Dominique Pifarely – Violin
 
Лог создания рипа
Exact Audio Copy V1.0 beta 3 from 29. August 2011
EAC extraction logfile from 3. August 2013, 22:34
Vincent Courtois, Marc Ducret, Dominique Pifarely / The Fitting Room
Used drive : SlimtypeeNAU508 5 Adapter: 1 ID: 0
Read mode : Secure
Utilize accurate stream : Yes
Defeat audio cache : Yes
Make use of C2 pointers : No
Read offset correction : 6
Overread into Lead-In and Lead-Out : No
Fill up missing offset samples with silence : Yes
Delete leading and trailing silent blocks : No
Null samples used in CRC calculations : Yes
Used interface : Native Win32 interface for Win NT & 2000
Gap handling : Appended to previous track
Used output format : User Defined Encoder
Selected bitrate : 768 kBit/s
Quality : High
Add ID3 tag : No
Command line compressor : C:\Program Files (x86)\Exact Audio Copy\Flac\flac.exe
Additional command line options : -8 -V -T "ARTIST=%artist%" -T "TITLE=%title%" -T "ALBUM=%albumtitle%" -T "DATE=%year%" -T "TRACKNUMBER=%tracknr%" -T "GENRE=%genre%" -T "PERFORMER=%albuminterpret%" -T "COMPOSER=%composer%" %haslyrics%--tag-from-file=LYRICS="%lyricsfile%"%haslyrics% -T "ALBUMARTIST=%albumartist%" -T "DISCNUMBER=%cdnumber%" -T "TOTALDISCS=%totalcds%" -T "TOTALTRACKS=%numtracks%" -T "COMMENT=%comment%" %source% -o %dest%
TOC of the extracted CD
Track | Start | Length | Start sector | End sector
---------------------------------------------------------
1 | 0:00.00 | 14:18.50 | 0 | 64399
2 | 14:18.50 | 2:00.55 | 64400 | 73454
3 | 16:19.30 | 3:24.15 | 73455 | 88769
4 | 19:43.45 | 2:24.60 | 88770 | 99629
5 | 22:08.30 | 5:36.32 | 99630 | 124861
6 | 27:44.62 | 3:03.25 | 124862 | 138611
7 | 30:48.12 | 3:30.13 | 138612 | 154374
8 | 34:18.25 | 6:45.42 | 154375 | 184791
9 | 41:03.67 | 2:56.08 | 184792 | 197999
Track 1
Filename C:\EAC rips\01 - Céline (part1, part 2, part 3).wav
Pre-gap length 0:00:02.00
Peak level 97.9 %
Extraction speed 2.8 X
Track quality 100.0 %
Test CRC 7EFF0315
Copy CRC 7EFF0315
Accurately ripped (confidence 4) [1A39F129] (AR v1)
Copy OK
Track 2
Filename C:\EAC rips\02 - Oranges amères.wav
Pre-gap length 0:00:04.70
Peak level 97.9 %
Extraction speed 2.6 X
Track quality 100.0 %
Test CRC E0DB6643
Copy CRC E0DB6643
Accurately ripped (confidence 4) [5902372B] (AR v1)
Copy OK
Track 3
Filename C:\EAC rips\03 - Homère s'arrange.wav
Pre-gap length 0:00:03.10
Peak level 97.9 %
Extraction speed 2.4 X
Track quality 99.9 %
Test CRC 02D5790D
Copy CRC 02D5790D
Accurately ripped (confidence 4) [880DF275] (AR v1)
Copy OK
Track 4
Filename C:\EAC rips\04 - Miroirs.wav
Pre-gap length 0:00:01.48
Peak level 91.2 %
Extraction speed 3.0 X
Track quality 100.0 %
Test CRC 88A8B328
Copy CRC 88A8B328
Accurately ripped (confidence 4) [80948E62] (AR v1)
Copy OK
Track 5
Filename C:\EAC rips\05 - The Fitting Room.wav
Pre-gap length 0:00:01.10
Peak level 97.9 %
Extraction speed 3.5 X
Track quality 100.0 %
Test CRC CC0BC8E5
Copy CRC CC0BC8E5
Accurately ripped (confidence 4) [FCD44F53] (AR v1)
Copy OK
Track 6
Filename C:\EAC rips\06 - Par les gouffres.wav
Pre-gap length 0:00:03.35
Peak level 97.9 %
Extraction speed 3.4 X
Track quality 100.0 %
Test CRC 690208C4
Copy CRC 690208C4
Accurately ripped (confidence 4) [B15A236C] (AR v1)
Copy OK
Track 7
Filename C:\EAC rips\07 - Tom.wav
Pre-gap length 0:00:02.35
Peak level 97.9 %
Extraction speed 2.9 X
Track quality 99.9 %
Test CRC C83C0093
Copy CRC C83C0093
Accurately ripped (confidence 3) [7BD83A7A] (AR v1)
Copy OK
Track 8
Filename C:\EAC rips\08 - Le III.wav
Pre-gap length 0:00:00.48
Peak level 97.9 %
Extraction speed 4.1 X
Track quality 100.0 %
Test CRC BEE87BC8
Copy CRC BEE87BC8
Accurately ripped (confidence 3) [6F794477] (AR v1)
Copy OK
Track 9
Filename C:\EAC rips\09 - Vitrines.wav
Pre-gap length 0:00:01.62
Peak level 67.4 %
Extraction speed 3.8 X
Track quality 100.0 %
Test CRC 1BC58B3A
Copy CRC 1BC58B3A
Accurately ripped (confidence 4) [4C29C83F] (AR v1)
Copy OK
All tracks accurately ripped
No errors occurred
End of status report
---- CUETools DB Plugin V2.1.4
[CTDB TOCID: BApXzZpmY9ssdtf79.Cvl0x92Rg-] found
Submit result: already submitted
Track | CTDB Status
1 | (3/3) Accurately ripped
2 | (3/3) Accurately ripped
3 | (3/3) Accurately ripped
4 | (3/3) Accurately ripped
5 | (3/3) Accurately ripped
6 | (3/3) Accurately ripped
7 | (3/3) Accurately ripped
8 | (3/3) Accurately ripped
9 | (3/3) Accurately ripped
==== Log checksum 5256497328C4B0C055FDB7670E6748C3E2B45411FFE9B2FD6E9F14F2D3D27B94 ====
 
Содержание индексной карты (.CUE)
REM GENRE Jazz
REM DATE 2001
REM DISCID 720A5009
REM COMMENT "ExactAudioCopy v1.0b3"
PERFORMER "Vincent Courtois, Marc Ducret, Dominique Pifarely"
TITLE "The Fitting Room"
FILE "01 - Céline (part 1, part 2, part 3).wav" WAVE
TRACK 01 AUDIO
TITLE "Céline (part 1, part 2, part 3)"
PERFORMER "Vincent Courtois, Marc Ducret, Dominique Pifarely"
INDEX 01 00:00:00
INDEX 02 07:32:60
INDEX 03 09:35:67
TRACK 02 AUDIO
TITLE "Oranges amères"
PERFORMER "Vincent Courtois, Marc Ducret, Dominique Pifarely"
INDEX 00 14:13:55
FILE "02 - Oranges amères.wav" WAVE
INDEX 01 00:00:00
TRACK 03 AUDIO
TITLE "Homère s'arrange"
PERFORMER "Vincent Courtois, Marc Ducret, Dominique Pifarely"
INDEX 00 01:57:45
FILE "03 - Homère s'arrange.wav" WAVE
INDEX 01 00:00:00
TRACK 04 AUDIO
TITLE "Miroirs"
PERFORMER "Vincent Courtois, Marc Ducret, Dominique Pifarely"
INDEX 00 03:22:42
FILE "04 - Miroirs.wav" WAVE
INDEX 01 00:00:00
TRACK 05 AUDIO
TITLE "The Fitting Room"
PERFORMER "Vincent Courtois, Marc Ducret, Dominique Pifarely"
INDEX 00 02:23:50
FILE "05 - The Fitting Room.wav" WAVE
INDEX 01 00:00:00
TRACK 06 AUDIO
TITLE "Par les gouffres"
PERFORMER "Vincent Courtois, Marc Ducret, Dominique Pifarely"
INDEX 00 05:32:72
FILE "06 - Par les gouffres.wav" WAVE
INDEX 01 00:00:00
TRACK 07 AUDIO
TITLE "Tom"
PERFORMER "Vincent Courtois, Marc Ducret, Dominique Pifarely"
INDEX 00 03:00:65
FILE "07 - Tom.wav" WAVE
INDEX 01 00:00:00
TRACK 08 AUDIO
TITLE "Le III"
PERFORMER "Vincent Courtois, Marc Ducret, Dominique Pifarely"
INDEX 00 03:29:40
FILE "08 - Le III.wav" WAVE
INDEX 01 00:00:00
TRACK 09 AUDIO
TITLE "Vitrines"
PERFORMER "Vincent Courtois, Marc Ducret, Dominique Pifarely"
INDEX 00 06:43:55
FILE "09 - Vitrines.wav" WAVE
INDEX 01 00:00:00
Any questions -> support@pro-jazz.com. По всем вопросам пишите -> support@pro-jazz.com
16:50
167
Нет комментариев. Ваш будет первым!