Вы используете незарегистрированную версию компонента "Вкладки"!

Поиск

(Free Jazz, Contemporary Jazz) Aram Shelton Quartet - Everything For Somebody - 2012, FLAC (tracks+.cue), lossless

(Free Jazz, Contemporary Jazz) Aram Shelton Quartet - Everything For Somebody - 2012, FLAC (tracks+.cue), lossless
Треклист:
Aram Shelton Quartet / Everything For Somebody
Жанр: Free Jazz, Contemporary Jazz
Страна-производитель диска: USA
Год издания: 2012
Издатель (лейбл): Singlespeed Music
Номер по каталогу: SSM-011
Страна: USA
Аудиокодек: FLAC (*.flac)
Тип рипа: tracks+.cue
Битрейт аудио: lossless
Продолжительность: 00:44:43
Источник (релизер): CD
Наличие сканов в содержимом раздачи: нет
Треклист:
1. Anticipation 7:28
2. Everything For Somebody 7:08
3. Joints And Tendons 8:31
4. Barely Talking 6:40
5. Deadfall 8:01
6. Fleeting 6:53
 
Лог создания рипа
Exact Audio Copy V1.0 beta 3 from 29. August 2011
EAC extraction logfile from 3. August 2013, 18:48
Aram Shelton Quartet / Everything For Somebody
Used drive : TSSTcorpCDDVDW SH-222AB Adapter: 0 ID: 2
Read mode : Secure
Utilize accurate stream : Yes
Defeat audio cache : Yes
Make use of C2 pointers : No
Read offset correction : 6
Overread into Lead-In and Lead-Out : No
Fill up missing offset samples with silence : Yes
Delete leading and trailing silent blocks : No
Null samples used in CRC calculations : Yes
Used interface : Installed external ASPI interface
Gap handling : Appended to next track
Used output format : User Defined Encoder
Selected bitrate : 896 kBit/s
Quality : High
Add ID3 tag : No
Command line compressor : D:\Program Files (x86)\Exact Audio Copy\FLAC\FLAC.EXE
Additional command line options : -V -8 -T "Genre=%genre%" -T "Artist=%artist%" -T "Title=%title%" -T "Album=%albumtitle%" -T "Date=%year%" -T "Tracknumber=%tracknr%" -T "Comment=%comment%" %source%
TOC of the extracted CD
Track | Start | Length | Start sector | End sector
---------------------------------------------------------
1 | 0:00.00 | 7:28.70 | 0 | 33669
2 | 7:28.70 | 7:08.20 | 33670 | 65789
3 | 14:37.15 | 8:30.68 | 65790 | 104107
4 | 23:08.08 | 6:40.22 | 104108 | 134129
5 | 29:48.30 | 8:01.44 | 134130 | 170248
6 | 37:49.74 | 6:53.08 | 170249 | 201231
Track 1
Filename D:\EAC\Aram Shelton Quartet - Everything for Somebody\01 - Anticipation.wav
Pre-gap length 0:00:02.00
Peak level 100.0 %
Extraction speed 2.0 X
Track quality 100.0 %
Test CRC 41625D33
Copy CRC 41625D33
Accurately ripped (confidence 3) [985CDF52] (AR v2)
Copy OK
Track 2
Filename D:\EAC\Aram Shelton Quartet - Everything for Somebody\02 - Everything For Somebody.wav
Peak level 100.0 %
Extraction speed 2.3 X
Track quality 99.9 %
Test CRC DFBCD90D
Copy CRC DFBCD90D
Accurately ripped (confidence 3) [1C5999CF] (AR v2)
Copy OK
Track 3
Filename D:\EAC\Aram Shelton Quartet - Everything for Somebody\03 - Joints And Tendons.wav
Peak level 100.0 %
Extraction speed 2.8 X
Track quality 100.0 %
Test CRC BF061638
Copy CRC BF061638
Accurately ripped (confidence 3) [5A1DB406] (AR v2)
Copy OK
Track 4
Filename D:\EAC\Aram Shelton Quartet - Everything for Somebody\04 - Barely Talking.wav
Peak level 100.0 %
Extraction speed 3.0 X
Track quality 100.0 %
Test CRC A40598A8
Copy CRC A40598A8
Accurately ripped (confidence 3) [CE4F6BE9] (AR v2)
Copy OK
Track 5
Filename D:\EAC\Aram Shelton Quartet - Everything for Somebody\05 - Deadfall.wav
Peak level 100.0 %
Extraction speed 3.3 X
Track quality 100.0 %
Test CRC C86D88B3
Copy CRC C86D88B3
Accurately ripped (confidence 3) [EAAFACAD] (AR v2)
Copy OK
Track 6
Filename D:\EAC\Aram Shelton Quartet - Everything for Somebody\06 - Fleeting.wav
Peak level 100.0 %
Extraction speed 3.5 X
Track quality 100.0 %
Test CRC 0605BCF1
Copy CRC 0605BCF1
Accurately ripped (confidence 3) [2B50B913] (AR v2)
Copy OK
All tracks accurately ripped
No errors occurred
End of status report
==== Log checksum D9CD978E6E4ED843BBABE9BF746EB8C15B3291E9972FC032DABF3513D6D22554 ====
 
Содержание индексной карты (.CUE)
REM GENRE Jazz
REM DATE 2012
REM DISCID 4D0A7B06
REM COMMENT "ExactAudioCopy v1.0b3"
PERFORMER "Aram Shelton Quartet"
TITLE "Everything For Somebody"
FILE "01 - Anticipation.wav" WAVE
TRACK 01 AUDIO
TITLE "Anticipation"
PERFORMER "Aram Shelton Quartet"
ISRC USPXX1200011
INDEX 01 00:00:00
FILE "02 - Everything For Somebody.wav" WAVE
TRACK 02 AUDIO
TITLE "Everything For Somebody"
PERFORMER "Aram Shelton Quartet"
ISRC USPXX1200012
INDEX 01 00:00:00
FILE "03 - Joints And Tendons.wav" WAVE
TRACK 03 AUDIO
TITLE "Joints And Tendons"
PERFORMER "Aram Shelton Quartet"
ISRC USPXX1200013
INDEX 01 00:00:00
FILE "04 - Barely Talking.wav" WAVE
TRACK 04 AUDIO
TITLE "Barely Talking"
PERFORMER "Aram Shelton Quartet"
ISRC USPXX1200014
INDEX 01 00:00:00
FILE "05 - Deadfall.wav" WAVE
TRACK 05 AUDIO
TITLE "Deadfall"
PERFORMER "Aram Shelton Quartet"
ISRC USPXX1200015
INDEX 01 00:00:00
FILE "06 - Fleeting.wav" WAVE
TRACK 06 AUDIO
TITLE "Fleeting"
PERFORMER "Aram Shelton Quartet"
ISRC USPXX1200016
INDEX 01 00:00:00
Доп. информация: Recorded by James Wagner at Strobe Studios, Chicago June 26, 2011
Mixed by Aram Shelton
Mastered by Joe Tarantino at Fantasy Studios, Berkeley
Cover photo by Peter Gannushkin / DOWNTOWNMUSIC.NET
Interior photo by Shelton - Foster Beach, Chicago
Singlespeed Music SSM-011
www.singlespeedmusic.org
 
Об исполнителе (группе)
The Aram Shelton Quartet plays creative jazz music inspired by the likes of Ornette Coleman, Eric Dolphy, Charles Mingus, and the Art Ensemble of Chicago. In this quartet, Shelton is joined by Chicagoans Keefe Jackson on tenor saxophone, Anton Hatwich on bass, and Tim Daisy on drums.
 
Об альбоме (сборнике)
Shelton’s compositions for the group feature strong melodies and inventive forms. "Everything for Somebody", their sophomore album, features six compositions that place the players in familiar and challenging territory, with an eye towards exploring the many pairings available through solos, duos, trios and the full quartet. All four members contribute narrative solos to this album, displaying their individual styles while making a collective music that is joyful, energetic, raw and poignant.
 
Состав
Alto Saxophone – Aram Shelton
Bass – Anton Hatwich
Drums – Tim Daisy
Tenor Saxophone – Keefe Jackson
По всем вопросам пишите личное сообщение пользователю M0p94ok.
16:49
154
Нет комментариев. Ваш будет первым!