Вы используете незарегистрированную версию компонента "Вкладки"!

Поиск

(Free Jazz, Post-Bop, Enja Records) Max Roach - To the Max! (2CDs) - 1991, FLAC (tracks+.cue), lossless

(Free Jazz, Post-Bop, Enja Records) Max Roach - To the Max! (2CDs) - 1991, FLAC (tracks+.cue), lossless
Треклист:
Max Roach / To the Max! (2CDs)
Жанр: Free Jazz, Post-Bop, Enja Records
Страна-производитель диска: Germany
Год издания: 1991
Издатель (лейбл): Enja Records
Номер по каталогу: ENJ-7021 22
Аудиокодек: FLAC (*.flac)
Тип рипа: tracks+.cue
Битрейт аудио: lossless
Продолжительность: 49:11 + 50:54
Источник (релизер): Max Monteiro
Наличие сканов в содержимом раздачи: нет
Треклист:
Disc 1
1. Max Roach Chorus & Orchestra: Ghost Dance Part 1: Ghost Dance 30:44
M’Boom: Ghost Dance Part 2: Glorious Monster
Max Roach Chorus & Orchestra: Ghost Dance Part 3: Ghost Dance
2. M’Boom: A Quiet Place 3:51
3. Max Roach Quartet: The Profit 3:41
4. Max Roach Quartet: Tears 6:51
5. Max Roach Solo: Self Portrait 4:03
Disc 2
1. Max Roach Double Quartet: A Little Booker 21:04
2. M’Boom: Street Dance 5:22
3. Max Roach Quartet: Tricotism 3:17
4. Max Roach Quartet: Mwalimu 16:33
5. Max Roach Solo: Drums Unlimited 4:38
All compositions by Max Roach except « Tricotism » by Oscar Pettiford and « Mwalimu » by Odean Pope.
 
Лог создания рипа
 
Disc 1
Exact Audio Copy V1.0 beta 3 from 29. August 2011
EAC extraction logfile from 29. July 2013, 14:15
Max Roach / To the Max! (Disc 1)
Used drive : SlimtypeeNAU508 5 Adapter: 1 ID: 0
Read mode : Secure
Utilize accurate stream : Yes
Defeat audio cache : Yes
Make use of C2 pointers : No
Read offset correction : 6
Overread into Lead-In and Lead-Out : No
Fill up missing offset samples with silence : Yes
Delete leading and trailing silent blocks : No
Null samples used in CRC calculations : Yes
Used interface : Native Win32 interface for Win NT & 2000
Gap handling : Appended to previous track
Used output format : User Defined Encoder
Selected bitrate : 768 kBit/s
Quality : High
Add ID3 tag : No
Command line compressor : C:\Program Files (x86)\Exact Audio Copy\Flac\flac.exe
Additional command line options : -8 -V -T "ARTIST=%artist%" -T "TITLE=%title%" -T "ALBUM=%albumtitle%" -T "DATE=%year%" -T "TRACKNUMBER=%tracknr%" -T "GENRE=%genre%" -T "PERFORMER=%albuminterpret%" -T "COMPOSER=%composer%" %haslyrics%--tag-from-file=LYRICS="%lyricsfile%"%haslyrics% -T "ALBUMARTIST=%albumartist%" -T "DISCNUMBER=%cdnumber%" -T "TOTALDISCS=%totalcds%" -T "TOTALTRACKS=%numtracks%" -T "COMMENT=%comment%" %source% -o %dest%
TOC of the extracted CD
Track | Start | Length | Start sector | End sector
---------------------------------------------------------
1 | 0:00.33 | 30:44.27 | 33 | 138359
2 | 30:44.60 | 3:51.20 | 138360 | 155704
3 | 34:36.05 | 3:40.68 | 155705 | 172272
4 | 38:16.73 | 6:50.65 | 172273 | 203087
5 | 45:07.63 | 4:03.15 | 203088 | 221327
Track 1
Filename C:\EAC rips\01 - Ghost Dance Parts 1, 2 & 3 (Ghost Dance - Glorious Monster - Ghost Dance).wav
Pre-gap length 0:00:02.33
Peak level 94.4 %
Extraction speed 1.5 X
Track quality 100.0 %
Test CRC 4658FA39
Copy CRC 4658FA39
Accurately ripped (confidence 2) [1E1F5B3F] (AR v2)
Copy OK
Track 2
Filename C:\EAC rips\02 - A Quiet Place.wav
Pre-gap length 0:00:02.42
Peak level 50.6 %
Extraction speed 1.8 X
Track quality 100.0 %
Test CRC 03E21327
Copy CRC 03E21327
Accurately ripped (confidence 3) [78C64C35] (AR v2)
Copy OK
Track 3
Filename C:\EAC rips\03 - The Profit.wav
Pre-gap length 0:00:01.55
Peak level 71.6 %
Extraction speed 1.8 X
Track quality 100.0 %
Test CRC 84A0A363
Copy CRC 84A0A363
Accurately ripped (confidence 2) [4326B4C2] (AR v2)
Copy OK
Track 4
Filename C:\EAC rips\04 - Tears.wav
Pre-gap length 0:00:00.55
Peak level 78.2 %
Extraction speed 2.0 X
Track quality 100.0 %
Test CRC A748C506
Copy CRC A748C506
Accurately ripped (confidence 2) [526B87CF] (AR v2)
Copy OK
Track 5
Filename C:\EAC rips\05 - Self Portrait.wav
Pre-gap length 0:00:01.23
Peak level 97.1 %
Extraction speed 2.0 X
Track quality 100.0 %
Test CRC 2D1776FD
Copy CRC 2D1776FD
Accurately ripped (confidence 3) [34B5367A] (AR v2)
Copy OK
All tracks accurately ripped
No errors occurred
End of status report
---- CUETools DB Plugin V2.1.4
[CTDB TOCID: ufTirxENl1_lnC20otuVBl4A5m4-] found
Submit result: already submitted
Track | CTDB Status
1 | (1/1) Accurately ripped
2 | (1/1) Accurately ripped
3 | (1/1) Accurately ripped
4 | (1/1) Accurately ripped
5 | (1/1) Accurately ripped
==== Log checksum 9A87528302B716E093E81A1C3225DEACC3226A4A3636057783DE4AAB0DD2B779 ====
 
Disc 2
Exact Audio Copy V1.0 beta 3 from 29. August 2011
EAC extraction logfile from 24. July 2013, 12:05
Max Roach / To the Max! (Disc 2)
Used drive : SlimtypeeNAU508 5 Adapter: 1 ID: 0
Read mode : Secure
Utilize accurate stream : Yes
Defeat audio cache : Yes
Make use of C2 pointers : No
Read offset correction : 6
Overread into Lead-In and Lead-Out : No
Fill up missing offset samples with silence : Yes
Delete leading and trailing silent blocks : No
Null samples used in CRC calculations : Yes
Used interface : Native Win32 interface for Win NT & 2000
Gap handling : Appended to previous track
Used output format : User Defined Encoder
Selected bitrate : 768 kBit/s
Quality : High
Add ID3 tag : No
Command line compressor : C:\Program Files (x86)\Exact Audio Copy\Flac\flac.exe
Additional command line options : -8 -V -T "ARTIST=%artist%" -T "TITLE=%title%" -T "ALBUM=%albumtitle%" -T "DATE=%year%" -T "TRACKNUMBER=%tracknr%" -T "GENRE=%genre%" -T "PERFORMER=%albuminterpret%" -T "COMPOSER=%composer%" %haslyrics%--tag-from-file=LYRICS="%lyricsfile%"%haslyrics% -T "ALBUMARTIST=%albumartist%" -T "DISCNUMBER=%cdnumber%" -T "TOTALDISCS=%totalcds%" -T "TOTALTRACKS=%numtracks%" -T "COMMENT=%comment%" %source% -o %dest%
TOC of the extracted CD
Track | Start | Length | Start sector | End sector
---------------------------------------------------------
1 | 0:00.32 | 21:03.73 | 32 | 94829
2 | 21:04.30 | 5:21.50 | 94830 | 118954
3 | 26:26.05 | 3:16.60 | 118955 | 133714
4 | 29:42.65 | 16:33.02 | 133715 | 208191
5 | 46:15.67 | 4:38.23 | 208192 | 229064
Track 1
Filename C:\EAC rips\01 - A Little Booker.wav
Pre-gap length 0:00:02.32
Peak level 100.0 %
Extraction speed 1.4 X
Track quality 100.0 %
Test CRC 062DACA4
Copy CRC 062DACA4
Accurately ripped (confidence 5) [873C7576] (AR v1)
Copy OK
Track 2
Filename C:\EAC rips\02 - Street Dance.wav
Peak level 68.3 %
Extraction speed 1.5 X
Track quality 99.9 %
Test CRC B74D463C
Copy CRC B74D463C
Accurately ripped (confidence 5) [557C4A96] (AR v1)
Copy OK
Track 3
Filename C:\EAC rips\03 - Tricotism.wav
Pre-gap length 0:00:01.30
Peak level 74.5 %
Extraction speed 1.6 X
Track quality 100.0 %
Test CRC 6604B1AF
Copy CRC 6604B1AF
Accurately ripped (confidence 5) [3F9F3037] (AR v1)
Copy OK
Track 4
Filename C:\EAC rips\04 - Mwalimu.wav
Pre-gap length 0:00:06.68
Peak level 99.9 %
Extraction speed 2.0 X
Track quality 99.9 %
Test CRC 81AAB75E
Copy CRC 81AAB75E
Accurately ripped (confidence 5) [24797A17] (AR v1)
Copy OK
Track 5
Filename C:\EAC rips\05 - Drums Unlimited.wav
Pre-gap length 0:00:05.15
Peak level 88.6 %
Extraction speed 2.1 X
Track quality 100.0 %
Test CRC 3F943632
Copy CRC 3F943632
Accurately ripped (confidence 5) [38142F5E] (AR v1)
Copy OK
All tracks accurately ripped
No errors occurred
End of status report
---- CUETools DB Plugin V2.1.4
[CTDB TOCID: w6kXaWBTK6Mw3_CNijCEy_hvCkU-] disk not present in database
Submit result: w6kXaWBTK6Mw3_CNijCEy_hvCkU- has been uploaded
==== Log checksum 1C10A9B274824ACC2B3AEB778BC7029C00105D78C9350018780479F4A37EA59E ====
 
Содержание индексной карты (.CUE)
 
Disc 1
REM GENRE Jazz
REM DATE 1991
REM DISCID 4D0B8705
REM COMMENT "ExactAudioCopy v1.0b3"
PERFORMER "Max Roach"
TITLE "To the Max! (Disc 1)"
FILE "01 - Ghost Dance Parts 1, 2 & 3 (Ghost Dance - Glorious Monster - Ghost Dance).wav" WAVE
TRACK 01 AUDIO
TITLE "Ghost Dance Parts 1, 2 & 3 (Ghost Dance / Glorious Monster / Ghost Dance)"
PERFORMER "Max Roach Chorus & Orchestra / M'Boom / Max Roach Chorus & Orchestra"
PREGAP 00:00:33
INDEX 01 00:00:00
INDEX 02 14:51:12
INDEX 03 24:23:22
TRACK 02 AUDIO
TITLE "A Quiet Place"
PERFORMER "M'Boom"
INDEX 00 30:41:60
FILE "02 - A Quiet Place.wav" WAVE
INDEX 01 00:00:00
TRACK 03 AUDIO
TITLE "The Profit"
PERFORMER "Max Roach Quartet"
INDEX 00 03:49:40
FILE "03 - The Profit.wav" WAVE
INDEX 01 00:00:00
TRACK 04 AUDIO
TITLE "Tears"
PERFORMER "Max Roach Quartet"
INDEX 00 03:40:13
FILE "04 - Tears.wav" WAVE
INDEX 01 00:00:00
TRACK 05 AUDIO
TITLE "Self Portrait"
PERFORMER "Max Roach Solo"
INDEX 00 06:49:42
FILE "05 - Self Portrait.wav" WAVE
INDEX 01 00:00:00
 
Disc 2
REM GENRE Jazz
REM DATE 1991
REM DISCID 520BEE05
REM COMMENT "ExactAudioCopy v1.0b3"
PERFORMER "Max Roach"
TITLE "To the Max! (Disc 2)"
FILE "01 - A Little Booker.wav" WAVE
TRACK 01 AUDIO
TITLE "A Little Booker"
PERFORMER "Max Roach Double Quartet"
PREGAP 00:00:32
INDEX 01 00:00:00
FILE "02 - Street Dance.wav" WAVE
TRACK 02 AUDIO
TITLE "Street Dance"
PERFORMER "M'Boom"
INDEX 01 00:00:00
TRACK 03 AUDIO
TITLE "Tricotism"
PERFORMER "Max Roach Quartet"
INDEX 00 05:20:20
FILE "03 - Tricotism.wav" WAVE
INDEX 01 00:00:00
TRACK 04 AUDIO
TITLE "Mwalimu"
PERFORMER "Max Roach Quartet"
INDEX 00 03:09:67
FILE "04 - Mwalimu.wav" WAVE
INDEX 01 00:00:00
TRACK 05 AUDIO
TITLE "Drums Unlimited"
PERFORMER "Max Roach Solo"
INDEX 00 16:27:62
FILE "05 - Drums Unlimited.wav" WAVE
INDEX 01 00:00:00
Доп. информация: Max Roach Chorus & Orchestra recorded at Clinton Recording Studios, NY on June 15, 1991.
M’Boom recorded at Master Sound Astoria, NY on June 24, 1991.
Max Roach Double Quartet recorded at The Power Station, NY on June 25, 1991.
Max Roach Quartet (« The Profit », « Tears ») recorded at The Power Station, NY on June 25, 1991.
Max Roach Quartet (« Tricotism ») recorded at The Marquee at the Tralf, Buffalo, NY on November 30, 1990.
Max Roach Quartet (« Mwalimu ») recorded at The Iron Horse, Nothampton, Mass. on April 29, 1991.
Max Roach Drum Solos recorded at Rev’O Jazz, Paris, France on September 15, 1990.
 
Состав
The Max Roach Chorus & Orchestra:

The John Motley Singers:
Priscilla Baskerville – Soprano
Florence Jackson – Soprano
Karen Jackson – Soprano
Lucille J. Jacobsen – Soprano
Sarah Ann Rodgers – Soprano
Robbin L. Balfour – Alto
Brenda Lee Taub – Alto
Christopher Pickens – Tenor
Abraham Shelton – Tenor
Thomas Young – Tenor
James Gainer – Bass
Greg Jones – Bass
T. Ray Lawrence – Bass
John Motley – Bass
Ronnell Bey – Soloist
George Cables – Piano
The Max Roach Quartet:

Odean Pope – Tenor Saxophone
Cecil Bridgewater – Trumpet
Tyrone Brown – Bass
Max Roach – Drums
The Uptown String Quartet:

Diane Monroe – Violin
Lesa Terry – Violin
Maxine Roach – Viola
Eileen Folson – Cello
M’Boom:
Roy Brooks
Joe Chambers
Omar Clay
Eli Foutain
Fred King
Ray Mantilla
Francisco Mora
Max Roach
Warren Smith
Any questions -> support@pro-jazz.com. По всем вопросам пишите -> support@pro-jazz.com
16:48
150
Нет комментариев. Ваш будет первым!