Вы используете незарегистрированную версию компонента "Вкладки"!

Поиск

(Free Improvisation, Enja Records) Glenn Ferris Trio - Face Lift - 1996, FLAC (tracks+.cue), lossless

(Free Improvisation, Enja Records) Glenn Ferris Trio - Face Lift - 1996, FLAC (tracks+.cue), lossless
Треклист:
Glenn Ferris Trio / Face Lift
Жанр: Free Improvisation, Enja Records
Страна-производитель диска: Germany
Год издания: 1996
Издатель (лейбл): Enja Records
Номер по каталогу: enja CD 9089-2
Аудиокодек: FLAC (*.flac)
Тип рипа: tracks+.cue
Битрейт аудио: lossless
Продолжительность: 51:58
Источник (релизер): Max Monteiro
Наличие сканов в содержимом раздачи: нет
Треклист:
01. Memories (Glenn Ferris) 7:39
02. Face Lift (Glenn Ferris) 4:23
03. When the Night Turns Into Day (Glenn Ferris / Jeffery Smith) 2:44
04. Blues Nouk (Glenn Ferris) 6:28
05. Spring Can Really Hang You Up the Most (T. Wolf / F. Landesman) 8:18
06. After Affair (Glenn Ferris) 7:58
07. Creole Blues (Duke Ellington) 2:28
08. Blues Forever Blues (Glenn Ferris) 3:11
09. Mom and Dad (Glenn Ferris) 4:41
10. Lord Hanuman (Glenn Ferris) 4:07
All arrangements by Glenn Ferris.
Recorded on June 29, 1995 at Studio Daniel Deshays, Chatillon Paris.
Glenn Ferris – Trombone
Vincent Segal – Cello
Bruno Rousselet – Bass
 
Лог создания рипа
Exact Audio Copy V1.0 beta 3 from 29. August 2011
EAC extraction logfile from 23. July 2013, 19:30
Glenn Ferris Trio / Face Lift
Used drive : SlimtypeeNAU508 5 Adapter: 1 ID: 0
Read mode : Secure
Utilize accurate stream : Yes
Defeat audio cache : Yes
Make use of C2 pointers : No
Read offset correction : 6
Overread into Lead-In and Lead-Out : No
Fill up missing offset samples with silence : Yes
Delete leading and trailing silent blocks : No
Null samples used in CRC calculations : Yes
Used interface : Native Win32 interface for Win NT & 2000
Gap handling : Appended to previous track
Used output format : User Defined Encoder
Selected bitrate : 768 kBit/s
Quality : High
Add ID3 tag : No
Command line compressor : C:\Program Files (x86)\Exact Audio Copy\Flac\flac.exe
Additional command line options : -8 -V -T "ARTIST=%artist%" -T "TITLE=%title%" -T "ALBUM=%albumtitle%" -T "DATE=%year%" -T "TRACKNUMBER=%tracknr%" -T "GENRE=%genre%" -T "PERFORMER=%albuminterpret%" -T "COMPOSER=%composer%" %haslyrics%--tag-from-file=LYRICS="%lyricsfile%"%haslyrics% -T "ALBUMARTIST=%albumartist%" -T "DISCNUMBER=%cdnumber%" -T "TOTALDISCS=%totalcds%" -T "TOTALTRACKS=%numtracks%" -T "COMMENT=%comment%" %source% -o %dest%
TOC of the extracted CD
Track | Start | Length | Start sector | End sector
---------------------------------------------------------
1 | 0:00.00 | 7:38.67 | 0 | 34416
2 | 7:38.67 | 4:23.08 | 34417 | 54149
3 | 12:02.00 | 2:43.67 | 54150 | 66441
4 | 14:45.67 | 6:28.13 | 66442 | 95554
5 | 21:14.05 | 8:18.35 | 95555 | 132939
6 | 29:32.40 | 7:57.40 | 132940 | 168754
7 | 37:30.05 | 2:28.35 | 168755 | 179889
8 | 39:58.40 | 3:10.45 | 179890 | 194184
9 | 43:09.10 | 4:41.35 | 194185 | 215294
10 | 47:50.45 | 4:07.27 | 215295 | 233846
Track 1
Filename C:\EAC rips\01 - Memories.wav
Pre-gap length 0:00:02.00
Peak level 91.5 %
Extraction speed 2.3 X
Track quality 100.0 %
Test CRC 77453DFA
Copy CRC 77453DFA
Track not present in AccurateRip database
Copy OK
Track 2
Filename C:\EAC rips\02 - Face Lift.wav
Pre-gap length 0:00:02.17
Peak level 74.8 %
Extraction speed 2.6 X
Track quality 100.0 %
Test CRC 54670009
Copy CRC 54670009
Track not present in AccurateRip database
Copy OK
Track 3
Filename C:\EAC rips\03 - When the Night Turns Into Day.wav
Pre-gap length 0:00:02.23
Peak level 39.8 %
Extraction speed 2.5 X
Track quality 100.0 %
Test CRC B5AC7BF4
Copy CRC B5AC7BF4
Track not present in AccurateRip database
Copy OK
Track 4
Filename C:\EAC rips\04 - Blues Nouk.wav
Pre-gap length 0:00:02.65
Peak level 62.7 %
Extraction speed 3.1 X
Track quality 100.0 %
Test CRC 94E04CA1
Copy CRC 94E04CA1
Track not present in AccurateRip database
Copy OK
Track 5
Filename C:\EAC rips\05 - Spring Can Really Hang You Up the Most.wav
Pre-gap length 0:00:02.38
Peak level 76.7 %
Extraction speed 3.5 X
Track quality 100.0 %
Test CRC FAF07D65
Copy CRC FAF07D65
Track not present in AccurateRip database
Copy OK
Track 6
Filename C:\EAC rips\06 - After Affair.wav
Pre-gap length 0:00:03.03
Peak level 89.3 %
Extraction speed 3.8 X
Track quality 100.0 %
Test CRC 68EC9DC1
Copy CRC 68EC9DC1
Track not present in AccurateRip database
Copy OK
Track 7
Filename C:\EAC rips\07 - Creole Blues.wav
Pre-gap length 0:00:02.63
Peak level 69.5 %
Extraction speed 3.4 X
Track quality 100.0 %
Test CRC A4CE1187
Copy CRC A4CE1187
Track not present in AccurateRip database
Copy OK
Track 8
Filename C:\EAC rips\08 - Blues Forever Blues.wav
Pre-gap length 0:00:02.20
Peak level 90.4 %
Extraction speed 3.6 X
Track quality 100.0 %
Test CRC 6D44543C
Copy CRC 6D44543C
Track not present in AccurateRip database
Copy OK
Track 9
Filename C:\EAC rips\09 - Mom and Dad.wav
Pre-gap length 0:00:02.28
Peak level 55.5 %
Extraction speed 4.0 X
Track quality 100.0 %
Test CRC B16FE978
Copy CRC B16FE978
Track not present in AccurateRip database
Copy OK
Track 10
Filename C:\EAC rips\10 - Lord Hanuman.wav
Pre-gap length 0:00:02.55
Peak level 100.0 %
Extraction speed 3.3 X
Track quality 99.9 %
Test CRC C33896A9
Copy CRC C33896A9
Track not present in AccurateRip database
Copy OK
None of the tracks are present in the AccurateRip database
No errors occurred
End of status report
---- CUETools DB Plugin V2.1.4
[CTDB TOCID: wcN9oQOG9YGQ7y3SeYaobtfQvHA-] found
Submit result: already submitted
Track | CTDB Status
1 | (2/2) Accurately ripped
2 | (2/2) Accurately ripped
3 | (2/2) Accurately ripped
4 | (2/2) Accurately ripped
5 | (2/2) Accurately ripped
6 | (2/2) Accurately ripped
7 | (2/2) Accurately ripped
8 | (2/2) Accurately ripped
9 | (2/2) Accurately ripped
10 | (2/2) Accurately ripped
==== Log checksum 82765F979121797582954C92BB6B7730633D913C2FBCE4C54B913C648EBDD126 ====
 
Содержание индексной карты (.CUE)
REM GENRE Jazz
REM DATE 1996
REM DISCID 880C2D0A
REM COMMENT "ExactAudioCopy v1.0b3"
PERFORMER "Glenn Ferris Trio"
TITLE "Face Lift"
FILE "01 - Memories.wav" WAVE
TRACK 01 AUDIO
TITLE "Memories"
PERFORMER "Glenn Ferris Trio"
INDEX 01 00:00:00
TRACK 02 AUDIO
TITLE "Face Lift"
PERFORMER "Glenn Ferris Trio"
INDEX 00 07:36:50
FILE "02 - Face Lift.wav" WAVE
INDEX 01 00:00:00
TRACK 03 AUDIO
TITLE "When the Night Turns Into Day"
PERFORMER "Glenn Ferris Trio"
INDEX 00 04:20:60
FILE "03 - When the Night Turns Into Day.wav" WAVE
INDEX 01 00:00:00
TRACK 04 AUDIO
TITLE "Blues Nouk"
PERFORMER "Glenn Ferris Trio"
INDEX 00 02:41:02
FILE "04 - Blues Nouk.wav" WAVE
INDEX 01 00:00:00
TRACK 05 AUDIO
TITLE "Spring Can Really Hang You Up the Most"
PERFORMER "Glenn Ferris Trio"
INDEX 00 06:25:50
FILE "05 - Spring Can Really Hang You Up the Most.wav" WAVE
INDEX 01 00:00:00
TRACK 06 AUDIO
TITLE "After Affair"
PERFORMER "Glenn Ferris Trio"
INDEX 00 08:15:32
FILE "06 - After Affair.wav" WAVE
INDEX 01 00:00:00
TRACK 07 AUDIO
TITLE "Creole Blues"
PERFORMER "Glenn Ferris Trio"
INDEX 00 07:54:52
FILE "07 - Creole Blues.wav" WAVE
INDEX 01 00:00:00
TRACK 08 AUDIO
TITLE "Blues Forever Blues"
PERFORMER "Glenn Ferris Trio"
INDEX 00 02:26:15
FILE "08 - Blues Forever Blues.wav" WAVE
INDEX 01 00:00:00
TRACK 09 AUDIO
TITLE "Mom and Dad"
PERFORMER "Glenn Ferris Trio"
INDEX 00 03:08:17
FILE "09 - Mom and Dad.wav" WAVE
INDEX 01 00:00:00
TRACK 10 AUDIO
TITLE "Lord Hanuman"
PERFORMER "Glenn Ferris Trio"
INDEX 00 04:38:55
FILE "10 - Lord Hanuman.wav" WAVE
INDEX 01 00:00:00
Any questions -> support@pro-jazz.com. По всем вопросам пишите -> support@pro-jazz.com
16:47
150
Нет комментариев. Ваш будет первым!