Вы используете незарегистрированную версию компонента "Вкладки"!

Поиск

(Free Jazz, Enja Records) Cecil McBee Sextet (Don Moye, Steve McCall, Chico Freeman, Joe Gardner, Dennis Moorman) - Music from the Source - 1997 (1978), FLAC (tracks+.cue), lossless

(Free Jazz, Enja Records) Cecil McBee Sextet (Don Moye, Steve McCall, Chico Freeman, Joe Gardner, Dennis Moorman) - Music from the Source - 1997 (1978), FLAC (tracks+.cue), lossless
Треклист:
Cecil McBee Sextet / Music from the Source
Жанр: Free Jazz, Enja Records
Страна-производитель диска: Germany
Год издания: 1997 (1978)
Издатель (лейбл): Enja Records
Номер по каталогу: enja CD 3019-2
Аудиокодек: FLAC (*.flac)
Тип рипа: tracks+.cue
Битрейт аудио: lossless
Продолжительность: 44:49
Источник (релизер): Max Monteiro
Наличие сканов в содержимом раздачи: нет
Треклист:
1. Agnez (with respect to Roy Haynes) (Cecil McBee) 19:14
2. God Spirit (Cecil McBee) 8:15
3. First Song in the Day (Hal Galper) 17:20
Recorded live at « Sweet Basil » NY on August 2, 1977.
Cecil McBee – Bass
Chico Freeman – Flute, Tenor Sax
Joe Gardner – Trumpet, Flugelhorn
Dennis Moorman – Piano
Steve McCall – Drums
Don Moye – Percussion
 
Лог создания рипа
Exact Audio Copy V1.0 beta 3 from 29. August 2011
EAC extraction logfile from 26. July 2013, 12:33
Cecil McBee Sextet / Music from the Source
Used drive : SlimtypeeNAU508 5 Adapter: 1 ID: 0
Read mode : Secure
Utilize accurate stream : Yes
Defeat audio cache : Yes
Make use of C2 pointers : No
Read offset correction : 6
Overread into Lead-In and Lead-Out : No
Fill up missing offset samples with silence : Yes
Delete leading and trailing silent blocks : No
Null samples used in CRC calculations : Yes
Used interface : Native Win32 interface for Win NT & 2000
Gap handling : Appended to previous track
Used output format : User Defined Encoder
Selected bitrate : 768 kBit/s
Quality : High
Add ID3 tag : No
Command line compressor : C:\Program Files (x86)\Exact Audio Copy\Flac\flac.exe
Additional command line options : -8 -V -T "ARTIST=%artist%" -T "TITLE=%title%" -T "ALBUM=%albumtitle%" -T "DATE=%year%" -T "TRACKNUMBER=%tracknr%" -T "GENRE=%genre%" -T "PERFORMER=%albuminterpret%" -T "COMPOSER=%composer%" %haslyrics%--tag-from-file=LYRICS="%lyricsfile%"%haslyrics% -T "ALBUMARTIST=%albumartist%" -T "DISCNUMBER=%cdnumber%" -T "TOTALDISCS=%totalcds%" -T "TOTALTRACKS=%numtracks%" -T "COMMENT=%comment%" %source% -o %dest%
TOC of the extracted CD
Track | Start | Length | Start sector | End sector
---------------------------------------------------------
1 | 0:00.00 | 19:13.67 | 0 | 86541
2 | 19:13.67 | 8:15.00 | 86542 | 123666
3 | 27:28.67 | 17:20.18 | 123667 | 201684
Track 1
Filename C:\EAC rips\01 - Agnez.wav
Pre-gap length 0:00:02.00
Peak level 94.8 %
Extraction speed 1.4 X
Track quality 100.0 %
Test CRC 27B39FF8
Copy CRC 27B39FF8
Accurately ripped (confidence 1) [2B606066] (AR v2)
Copy OK
Track 2
Filename C:\EAC rips\02 - God Spirit.wav
Peak level 82.2 %
Extraction speed 1.6 X
Track quality 99.9 %
Test CRC A099A93E
Copy CRC A099A93E
Accurately ripped (confidence 1) [8F4CF8F0] (AR v2)
Copy OK
Track 3
Filename C:\EAC rips\03 - First Song in the Day.wav
Peak level 94.4 %
Extraction speed 2.0 X
Track quality 100.0 %
Test CRC 5B04DA4A
Copy CRC 5B04DA4A
Accurately ripped (confidence 1) [142307FC] (AR v2)
Copy OK
All tracks accurately ripped
No errors occurred
End of status report
---- CUETools DB Plugin V2.1.4
[CTDB TOCID: jdwL99sHTDW4Rddqcy116lo7B.w-] found
Submit result: jdwL99sHTDW4Rddqcy116lo7B.w- has been confirmed
Track | CTDB Status
1 | (1/1) Accurately ripped
2 | (1/1) Accurately ripped
3 | (1/1) Accurately ripped
==== Log checksum 2EF1D7ED3C0138CF494D6C69BAB364A8B302F8F128E15EAF34A6B95FCADDF61C ====
 
Содержание индексной карты (.CUE)
REM GENRE Jazz
REM DATE 1997
REM DISCID 1A0A8103
REM COMMENT "ExactAudioCopy v1.0b3"
PERFORMER "Cecil McBee Sextet"
TITLE "Music from the Source"
FILE "01 - Agnez.wav" WAVE
TRACK 01 AUDIO
TITLE "Agnez"
PERFORMER "Cecil McBee Sextet"
INDEX 01 00:00:00
FILE "02 - God Spirit.wav" WAVE
TRACK 02 AUDIO
TITLE "God Spirit"
PERFORMER "Cecil McBee Sextet"
INDEX 01 00:00:00
FILE "03 - First Song in the Day.wav" WAVE
TRACK 03 AUDIO
TITLE "First Song in the Day"
PERFORMER "Cecil McBee Sextet"
INDEX 01 00:00:00
Any questions -> support@pro-jazz.com. По всем вопросам пишите -> support@pro-jazz.com
16:47
185
Нет комментариев. Ваш будет первым!