Вы используете незарегистрированную версию компонента "Вкладки"!

Поиск

(Free Jazz, Enja Records) Archie Shepp & Richard Davis - Body and Soul - 1991, FLAC (tracks+.cue), lossless

(Free Jazz, Enja Records) Archie Shepp & Richard Davis - Body and Soul - 1991, FLAC (tracks+.cue), lossless
Треклист:
Archie Shepp & Richard Davis / Body and Soul
Жанр: Free Jazz, Enja Records
Страна-производитель диска: Germany
Год издания: 1991
Издатель (лейбл): Enja Records
Номер по каталогу: enja CD 7007-2
Аудиокодек: FLAC (*.flac)
Тип рипа: tracks+.cue
Битрейт аудио: lossless
Продолжительность: 54:18
Источник (релизер): Max Monteiro
Наличие сканов в содержимом раздачи: да
Треклист:
1. Things Ain’t What They Used to Be (Mercer Ellington) 12:37
2. Body and Soul (Johnny Green) 17:17
3. Pannonica (Thelonious Monk) 7:21
4. Round About Midnight Thelonious Monk) 17:03
Recorded on October 1st, 1989 at Club Cantare, Boston.
Archie Shepp – Tenor Saxophone
Richard Davis – Bass
 
Лог создания рипа
Exact Audio Copy V1.0 beta 3 from 29. August 2011
EAC extraction logfile from 26. July 2013, 10:03
Archie Shepp & Richard Davis / Body and Soul
Used drive : SlimtypeeNAU508 5 Adapter: 1 ID: 0
Read mode : Secure
Utilize accurate stream : Yes
Defeat audio cache : Yes
Make use of C2 pointers : No
Read offset correction : 6
Overread into Lead-In and Lead-Out : No
Fill up missing offset samples with silence : Yes
Delete leading and trailing silent blocks : No
Null samples used in CRC calculations : Yes
Used interface : Native Win32 interface for Win NT & 2000
Gap handling : Appended to previous track
Used output format : User Defined Encoder
Selected bitrate : 768 kBit/s
Quality : High
Add ID3 tag : No
Command line compressor : C:\Program Files (x86)\Exact Audio Copy\Flac\flac.exe
Additional command line options : -8 -V -T "ARTIST=%artist%" -T "TITLE=%title%" -T "ALBUM=%albumtitle%" -T "DATE=%year%" -T "TRACKNUMBER=%tracknr%" -T "GENRE=%genre%" -T "PERFORMER=%albuminterpret%" -T "COMPOSER=%composer%" %haslyrics%--tag-from-file=LYRICS="%lyricsfile%"%haslyrics% -T "ALBUMARTIST=%albumartist%" -T "DISCNUMBER=%cdnumber%" -T "TOTALDISCS=%totalcds%" -T "TOTALTRACKS=%numtracks%" -T "COMMENT=%comment%" %source% -o %dest%
TOC of the extracted CD
Track | Start | Length | Start sector | End sector
---------------------------------------------------------
1 | 0:00.00 | 12:36.60 | 0 | 56759
2 | 12:36.60 | 17:17.05 | 56760 | 134539
3 | 29:53.65 | 7:21.10 | 134540 | 167624
4 | 37:15.00 | 17:03.30 | 167625 | 244379
Track 1
Filename C:\EAC rips\01 - Things Ain't What They Used to Be.wav
Pre-gap length 0:00:02.00
Peak level 69.9 %
Extraction speed 2.6 X
Track quality 100.0 %
Test CRC 8581FA5A
Copy CRC 8581FA5A
Accurately ripped (confidence 4) [A0AB828F] (AR v2)
Copy OK
Track 2
Filename C:\EAC rips\02 - Body and Soul.wav
Pre-gap length 0:00:03.55
Peak level 58.1 %
Extraction speed 3.7 X
Track quality 100.0 %
Test CRC 5B87FFC3
Copy CRC 5B87FFC3
Accurately ripped (confidence 4) [FF40F088] (AR v2)
Copy OK
Track 3
Filename C:\EAC rips\03 - Pannonica.wav
Pre-gap length 0:00:03.48
Peak level 64.4 %
Extraction speed 3.7 X
Track quality 100.0 %
Test CRC 59A8D3B0
Copy CRC 59A8D3B0
Accurately ripped (confidence 4) [BEDC0880] (AR v2)
Copy OK
Track 4
Filename C:\EAC rips\04 - Round About Midnight.wav
Pre-gap length 0:00:05.10
Peak level 59.3 %
Extraction speed 4.3 X
Track quality 100.0 %
Test CRC A3769FEC
Copy CRC A3769FEC
Accurately ripped (confidence 3) [5B40ECEB] (AR v2)
Copy OK
All tracks accurately ripped
No errors occurred
End of status report
---- CUETools DB Plugin V2.1.4
[CTDB TOCID: VsvlkxFb9BqPkknL3aAD6Z2yJ6I-] found
Submit result: VsvlkxFb9BqPkknL3aAD6Z2yJ6I- has been confirmed
Track | CTDB Status
1 | (4/4) Accurately ripped
2 | (4/4) Accurately ripped
3 | (4/4) Accurately ripped
4 | (4/4) Accurately ripped
==== Log checksum 7EBB82580B01F0208D418AF17A18A6064692768E62A51D0B8681A085BA8D708C ====
 
Содержание индексной карты (.CUE)
REM GENRE Jazz
REM DATE 1991
REM DISCID 3A0CBA04
REM COMMENT "ExactAudioCopy v1.0b3"
CATALOG 0003736370072
PERFORMER "Archie Shepp & Richard Davis"
TITLE "Body and Soul"
FILE "01 - Things Ain't What They Used to Be.wav" WAVE
TRACK 01 AUDIO
TITLE "Things Ain't What They Used to Be"
PERFORMER "Archie Shepp & Richard Davis"
INDEX 01 00:00:00
TRACK 02 AUDIO
TITLE "Body and Soul"
PERFORMER "Archie Shepp & Richard Davis"
INDEX 00 12:33:05
FILE "02 - Body and Soul.wav" WAVE
INDEX 01 00:00:00
TRACK 03 AUDIO
TITLE "Pannonica"
PERFORMER "Archie Shepp & Richard Davis"
INDEX 00 17:13:32
FILE "03 - Pannonica.wav" WAVE
INDEX 01 00:00:00
TRACK 04 AUDIO
TITLE "Round About Midnight"
PERFORMER "Archie Shepp & Richard Davis"
INDEX 00 07:16:00
FILE "04 - Round About Midnight.wav" WAVE
INDEX 01 00:00:00
Any questions -> support@pro-jazz.com. По всем вопросам пишите -> support@pro-jazz.com
16:46
223
Нет комментариев. Ваш будет первым!