Вы используете незарегистрированную версию компонента "Вкладки"!

Поиск

(Free Improvisation, Noise, Experimental) Derek Bailey - Guitar, Drums 'N' Bass - 1996, FLAC (tracks+.cue), lossless

(Free Improvisation, Noise, Experimental) Derek Bailey - Guitar, Drums 'N' Bass - 1996, FLAC (tracks+.cue), lossless
Треклист:
Derek Bailey / Guitar, Drums 'N' Bass
Жанр: Free Improvisation, Noise, Experimental
Страна-производитель диска: Japan
Год издания: 1996
Издатель (лейбл): Avant
Номер по каталогу: AVAN 060
Страна: UK
Аудиокодек: FLAC (*.flac)
Тип рипа: tracks+.cue
Битрейт аудио: lossless
Продолжительность: 39:06
Источник (релизер): waffles.fm, denti
Наличие сканов в содержимом раздачи:
Треклист:
1 N/Jz/Bm (Re Mix) 3:33
2 Re-Re-Re (Up Mix) 1:35
3 Dnjbb (Cake Mix) 13:46
4 Concrete (Cement Mix) 7:02
5 Ninj (De Mix) 11:29
6 Pie (Amatosis Mix) 1:38
 
Лог создания рипа
Exact Audio Copy V0.99 prebeta 4 from 23. January 2008
EAC extraction logfile from 18. April 2009, 22:35
Derek Bailey / guitar, drums 'n' bass
Used drive : TSSTcorpCDDVDW TS-L633L Adapter: 2 ID: 0
Read mode : Secure
Utilize accurate stream : Yes
Defeat audio cache : Yes
Make use of C2 pointers : No
Read offset correction : 6
Overread into Lead-In and Lead-Out : No
Fill up missing offset samples with silence : Yes
Delete leading and trailing silent blocks : No
Null samples used in CRC calculations : Yes
Used interface : Native Win32 interface for Win NT & 2000
Gap handling : Appended to previous track
Used output format : User Defined Encoder
Selected bitrate : 128 kBit/s
Quality : High
Add ID3 tag : No
Command line compressor : C:\Program Files\Exact Audio Copy\Flac\flac.exe
Additional command line options : -V -8 -T "artist=%a" -T "title=%t" -T "album=%g" -T "date=%y" -T "tracknumber=%n" -T "genre=%m" %s
TOC of the extracted CD
Track | Start | Length | Start sector | End sector
---------------------------------------------------------
1 | 0:00.00 | 3:33.42 | 0 | 16016
2 | 3:33.42 | 1:35.15 | 16017 | 23156
3 | 5:08.57 | 13:46.63 | 23157 | 85169
4 | 18:55.45 | 7:02.45 | 85170 | 116864
5 | 25:58.15 | 11:29.67 | 116865 | 168606
6 | 37:28.07 | 1:38.27 | 168607 | 175983
Track 1
Filename C:\EACrips\Derek Bailey - 1996 - guitar, drums 'n' bass\01 - N,JZ,BM (re-mix) .wav
Pre-gap length 0:00:02.00
Peak level 92.4 %
Track quality 100.0 %
Test CRC 03A17298
Copy CRC 03A17298
Accurately ripped (confidence 3) [35CF0207]
Copy OK
Track 2
Filename C:\EACrips\Derek Bailey - 1996 - guitar, drums 'n' bass\02 - Re-Re-Re (up-mix) .wav
Peak level 96.2 %
Track quality 100.0 %
Test CRC 5C7549CB
Copy CRC 5C7549CB
Accurately ripped (confidence 3) [04DDA9AC]
Copy OK
Track 3
Filename C:\EACrips\Derek Bailey - 1996 - guitar, drums 'n' bass\03 - DNJBB (cake-mix) .wav
Peak level 98.8 %
Track quality 99.9 %
Test CRC 8D5A893C
Copy CRC 8D5A893C
Accurately ripped (confidence 3) [46BA6249]
Copy OK
Track 4
Filename C:\EACrips\Derek Bailey - 1996 - guitar, drums 'n' bass\04 - Concrete (cement-mix) .wav
Peak level 99.9 %
Track quality 100.0 %
Test CRC 51D9AC49
Copy CRC 51D9AC49
Accurately ripped (confidence 3) [BE781DB2]
Copy OK
Track 5
Filename C:\EACrips\Derek Bailey - 1996 - guitar, drums 'n' bass\05 - Ninj (de-mix) .wav
Peak level 94.1 %
Track quality 100.0 %
Test CRC D562E95C
Copy CRC D562E95C
Accurately ripped (confidence 3) [69789241]
Copy OK
Track 6
Filename C:\EACrips\Derek Bailey - 1996 - guitar, drums 'n' bass\06 - Pie (amatosis-mix) .wav
Peak level 93.4 %
Track quality 100.0 %
Test CRC 80A6162C
Copy CRC 80A6162C
Accurately ripped (confidence 3) [388AE71E]
Copy OK
All tracks accurately ripped
No errors occurred
End of status report
 
Содержание индексной карты (.CUE)
REM GENRE Other
REM DATE 1996
REM DISCID 2F092A06
REM COMMENT "ExactAudioCopy v0.99pb4"
PERFORMER "Derek Bailey"
TITLE "guitar, drums 'n' bass"
FILE "01 - N,JZ,BM (re-mix) .wav" WAVE
TRACK 01 AUDIO
TITLE "N/JZ/BM (re-mix)"
PERFORMER "Derek Bailey"
INDEX 01 00:00:00
FILE "02 - Re-Re-Re (up-mix) .wav" WAVE
TRACK 02 AUDIO
TITLE "Re-Re-Re (up-mix)"
PERFORMER "Derek Bailey"
INDEX 01 00:00:00
FILE "03 - DNJBB (cake-mix) .wav" WAVE
TRACK 03 AUDIO
TITLE "DNJBB (cake-mix)"
PERFORMER "Derek Bailey"
INDEX 01 00:00:00
FILE "04 - Concrete (cement-mix) .wav" WAVE
TRACK 04 AUDIO
TITLE "Concrete (cement-mix)"
PERFORMER "Derek Bailey"
INDEX 01 00:00:00
FILE "05 - Ninj (de-mix) .wav" WAVE
TRACK 05 AUDIO
TITLE "Ninj (de-mix)"
PERFORMER "Derek Bailey"
INDEX 01 00:00:00
FILE "06 - Pie (amatosis-mix) .wav" WAVE
TRACK 06 AUDIO
TITLE "Pie (amatosis-mix)"
PERFORMER "Derek Bailey"
INDEX 01 00:00:00
 
Лог проверки качества
d:\>d:\aucdtect -d/-m0 d:\zzz\*.wav
auCDtect: CD records authenticity detector, version 0.8.2
Copyright (c) 2004 Oleg Berngardt. All rights reserved.
Copyright (c) 2004 Alexander Djourik. All rights reserved.
------------------------------------------------------------
Processing file: [01. N-JZ-BM (re-mix).wav]
------------------------------------------------------------
This track looks like CDDA with probability 100%
------------------------------------------------------------
Processing file: [02. Re-Re-Re (up-mix).wav]
------------------------------------------------------------
This track looks like CDDA with probability 100%
------------------------------------------------------------
Processing file: [03. DNJBB (cake-mix).wav]
------------------------------------------------------------
This track looks like CDDA with probability 100%
------------------------------------------------------------
Processing file: [04. Concrete (cement-mix).wav]
------------------------------------------------------------
This track looks like CDDA with probability 100%
------------------------------------------------------------
Processing file: [05. Ninj (de-mix).wav]
------------------------------------------------------------
This track looks like CDDA with probability 100%
------------------------------------------------------------
Processing file: [06. Pie (amatosis-mix).wav]
------------------------------------------------------------
This track looks like CDDA with probability 100%
------------------------------------------------------------
Final Conclusion:
------------------------------------------------------------
These tracks looks like CDDA with probability 100%
Доп. информация:
 
AMG Review
Derek Bailey, who was in his mid-sixties when this disc was released in 1996, is generally recognized as the elder statesman of avant-garde guitar; his former students include the hugely influential Fred Frith, and he has made particularly notable records with Evan Parker, Steve Lacy and John Zorn. He mostly records on his own Incus label, but for this album on Avant he teamed up with DJ Ninj, a well-regarded drum'n'bass artist, to create what may be the first program of guitar/breakbeat duets. It's a brilliant idea, and one that should have worked much better. As it turns out, the problems are as much technical as musical: Ninj's beats are thin-sounding and mixed too far back, giving the percussion sound a certain off-hand flavor. Bailey plays with his usual ferocity, skirling out ideas at such a rate that it's hard to keep up -- at times, he even plays in tempo with DJ Ninj's double-speed breakbeats, a feat that is impressive physically, not to say musically. But in other places he sounds hesitant, as if baffled by the clattering torrent of rhythm. The programming itself is a little perverse: "DNJBB" is a long, episodic piece with frequent silences that make it sound as if four or five consecutive tracks had all been written on the same breakbeat. There are many valuable and exhilarating moments here, but it's frustrating to think how much better this disc could have been if more care had been taken with it.
 
Состав
Derek Bailey, electric guitar.
D.J. Ninj, programming.
Bass and drums recorded spring 1995 in Birmingham, England.
Guitar recorded September 1995 at Bill Laswell's studio, NYC.
По всем вопросам пишите личное сообщение пользователю M0p94ok.
16:45
193
Нет комментариев. Ваш будет первым!