Поиск

(free jazz) Satoko Fujii - Sketches 2004, FLAC (tracks), lossless

(free jazz) Satoko Fujii - Sketches 2004, FLAC (tracks), lossless
Треклист:


Satoko Fujii - Sketches 2004

Жанр: free jazz
Год выпуска: 2004
Издатель (лейбл):NATSAT MTJC-3013
Формат: FLAC (tracks)
Битрейт аудио: lossless
Продолжительность 1`02`00
Источник: what.cd

tracks

01. seventh moon 5:37
02. frozen fire 4:46
03. watershed 4:13
04. tree rings 6:27
05. tin can cat 2:19
06. clay pot 6:02
07. your deepening shadow 6:12
08. dazzling sunlight 7:37
09. looking back 6:42
10. looking everywhere 4:13
11. look up 7:07


 
.accurip
[CUETools log; Date: 07/08/13 02:43:24; Version: 2.1.4]
[CTDB TOCID: lHCHeupC3X7ufEKTkaHIdwrShzU-] disk not present in database.
[AccurateRip ID: 001841f5-00d4993a-980e870b] found.
Track [ CRC | V2 ] Status
01 [d2c42b11|1f687c38] (1+0/1) Accurately ripped
02 [bb018a81|20b69add] (1+0/1) Accurately ripped
03 [3f0529d3|16e1d128] (1+0/1) Accurately ripped
04 [5528db78|89d54102] (1+0/1) Accurately ripped
05 [acb4ec27|08ee4d73] (1+0/1) Accurately ripped
06 [565a3ebf|dfef284d] (1+0/1) Accurately ripped
07 [d642985d|96cbec54] (1+0/1) Accurately ripped
08 [f719389f|2d79d2d2] (1+0/1) Accurately ripped
09 [4158dea8|666f371b] (1+0/1) Accurately ripped
10 [2ca99bc5|306c1454] (1+0/1) Accurately ripped
11 [f9ba1ec2|e9942cc0] (1+0/1) Accurately ripped
Track Peak [ CRC32 ] [W/O NULL]
-- 94.7 [EDDA6DC7] [95F1D8CA]
01 83.8 [36034AA2] [7DD6955C]
02 94.6 [2985BB31] [93F44DC7]
03 59.7 [5CFC272D] [E8DE6629]
04 91.7 [5E29F7FC] [4D83F9BB]
05 86.3 [A5FB78FA] [89406B3A]
06 94.7 [602E3FF7] [9D491764]
07 89.3 [0F0A063E] [12E0A424]
08 94.7 [E0B35098] [45913542]
09 65.8 [B802B08F] [A6A07E0C]
10 85.9 [EF5EB74A] [8106A0EF]
11 94.4 [1616954E] [F2A5D186]

другие релизы
По всем вопросам пишите личное сообщение пользователю M0p94ok.
16:52
233
Нет комментариев. Ваш будет первым!