Вы используете незарегистрированную версию компонента "Вкладки"!

Поиск

(Free Improvisation, Naive Records) Glenn Ferris "Pentessence" Quintet - Skin Me! - 2004, FLAC (tracks+.cue), lossless

(Free Improvisation, Naive Records) Glenn Ferris "Pentessence" Quintet - Skin Me! - 2004, FLAC (tracks+.cue), lossless
Треклист:
Glenn Ferris « Pentessence » Quintet / Skin Me!
Жанр: Free Improvisation, Naïve Records
Страна-производитель диска: France
Год издания: 2004
Издатель (лейбл): Naïve Records
Номер по каталогу: NV 801711
Аудиокодек: FLAC (*.flac)
Тип рипа: tracks+.cue
Битрейт аудио: lossless
Продолжительность: 1:12:02
Источник (релизер): Max Monteiro
Наличие сканов в содержимом раздачи: нет
Треклист:
01. Boy Boy 6:36
02. Saint James Infirmary 4:38
03. Memoreez 6:25
04. Femmes, je vous aime 5:07
05. Skin Me! 7:16
06. Chimney Sweep 4:48
07. Pastel Blues 7:09
08. When the Night Turns Into Day 7:31
09. Sud-Ouest Jump 6:35
10. Black Trombone 5:00
11. Key of Blue 6:49
12. Purge 4:09
All compositions by Glenn Ferris except « Saint James Infirmary » (traditional), « Femmes, je vous aime (Julien Clerc / Jérôme Galluis), Black Trombone (Serge Gainsbourg). All arranged by Glenn Ferris.
Enregistré à La Muse en Circuit les 29 et 30 mars 2004.
Glenn Ferris – Trombone
Jean-Michel Cabrol – Tenor Saxophone
Philippe Milanta – Piano
Bruno Rousselet – Double Bass
Jeff Boudreaux – Drums, Percussion
 
Лог создания рипа
Exact Audio Copy V1.0 beta 3 from 29. August 2011
EAC extraction logfile from 23. July 2013, 22:23
Glenn Ferris "Pentessence" Quintet / Skin Me!
Used drive : SlimtypeeNAU508 5 Adapter: 1 ID: 0
Read mode : Secure
Utilize accurate stream : Yes
Defeat audio cache : Yes
Make use of C2 pointers : No
Read offset correction : 6
Overread into Lead-In and Lead-Out : No
Fill up missing offset samples with silence : Yes
Delete leading and trailing silent blocks : No
Null samples used in CRC calculations : Yes
Used interface : Native Win32 interface for Win NT & 2000
Gap handling : Appended to previous track
Used output format : User Defined Encoder
Selected bitrate : 768 kBit/s
Quality : High
Add ID3 tag : No
Command line compressor : C:\Program Files (x86)\Exact Audio Copy\Flac\flac.exe
Additional command line options : -8 -V -T "ARTIST=%artist%" -T "TITLE=%title%" -T "ALBUM=%albumtitle%" -T "DATE=%year%" -T "TRACKNUMBER=%tracknr%" -T "GENRE=%genre%" -T "PERFORMER=%albuminterpret%" -T "COMPOSER=%composer%" %haslyrics%--tag-from-file=LYRICS="%lyricsfile%"%haslyrics% -T "ALBUMARTIST=%albumartist%" -T "DISCNUMBER=%cdnumber%" -T "TOTALDISCS=%totalcds%" -T "TOTALTRACKS=%numtracks%" -T "COMMENT=%comment%" %source% -o %dest%
TOC of the extracted CD
Track | Start | Length | Start sector | End sector
---------------------------------------------------------
1 | 0:00.00 | 6:35.41 | 0 | 29665
2 | 6:35.41 | 4:37.67 | 29666 | 50507
3 | 11:13.33 | 6:24.54 | 50508 | 79361
4 | 17:38.12 | 5:06.55 | 79362 | 102366
5 | 22:44.67 | 7:15.48 | 102367 | 135039
6 | 30:00.40 | 4:48.25 | 135040 | 156664
7 | 34:48.65 | 7:08.43 | 156665 | 188807
8 | 41:57.33 | 7:30.53 | 188808 | 222610
9 | 49:28.11 | 6:35.32 | 222611 | 252267
10 | 56:03.43 | 5:00.29 | 252268 | 274796
11 | 61:03.72 | 6:48.56 | 274797 | 305452
12 | 67:52.53 | 4:08.65 | 305453 | 324117
Track 1
Filename C:\EAC rips\01 - Boy Boy.wav
Pre-gap length 0:00:02.00
Peak level 100.0 %
Extraction speed 1.2 X
Track quality 100.0 %
Test CRC CEF35BE8
Copy CRC CEF35BE8
Accurately ripped (confidence 4) [2E274084] (AR v1)
Copy OK
Track 2
Filename C:\EAC rips\02 - Saint James Infirmary.wav
Pre-gap length 0:00:02.21
Peak level 100.0 %
Extraction speed 1.2 X
Track quality 99.9 %
Test CRC 01F28EF7
Copy CRC 01F28EF7
Accurately ripped (confidence 4) [13E16E99] (AR v1)
Copy OK
Track 3
Filename C:\EAC rips\03 - Memoreez.wav
Pre-gap length 0:00:01.08
Peak level 100.0 %
Extraction speed 1.5 X
Track quality 100.0 %
Test CRC EB0753E0
Copy CRC EB0753E0
Accurately ripped (confidence 4) [B7DFCC20] (AR v1)
Copy OK
Track 4
Filename C:\EAC rips\04 - Femmes, je vous aime.wav
Pre-gap length 0:00:03.36
Peak level 100.0 %
Extraction speed 1.4 X
Track quality 99.9 %
Test CRC D014DAD1
Copy CRC D014DAD1
Accurately ripped (confidence 4) [349F6099] (AR v1)
Copy OK
Track 5
Filename C:\EAC rips\05 - Skin Me!.wav
Pre-gap length 0:00:02.16
Peak level 100.0 %
Extraction speed 1.8 X
Track quality 100.0 %
Test CRC B2B20770
Copy CRC B2B20770
Accurately ripped (confidence 4) [39320E5E] (AR v1)
Copy OK
Track 6
Filename C:\EAC rips\06 - Chimney Sweep.wav
Pre-gap length 0:00:07.20
Peak level 100.0 %
Extraction speed 1.8 X
Track quality 100.0 %
Test CRC 2DAE0CA7
Copy CRC 2DAE0CA7
Accurately ripped (confidence 4) [A8A6409F] (AR v1)
Copy OK
Track 7
Filename C:\EAC rips\07 - Pastel Blues.wav
Pre-gap length 0:00:03.56
Peak level 100.0 %
Extraction speed 1.8 X
Track quality 99.9 %
Test CRC F6518550
Copy CRC F6518550
Accurately ripped (confidence 4) [B1FD277B] (AR v1)
Copy OK
Track 8
Filename C:\EAC rips\08 - When the Night Turns Into Day.wav
Pre-gap length 0:00:05.62
Peak level 100.0 %
Extraction speed 2.1 X
Track quality 100.0 %
Test CRC 3EE7E18B
Copy CRC 3EE7E18B
Accurately ripped (confidence 4) [7D760523] (AR v1)
Copy OK
Track 9
Filename C:\EAC rips\09 - Sud-Ouest Jump.wav
Pre-gap length 0:00:06.51
Peak level 100.0 %
Extraction speed 2.0 X
Track quality 99.9 %
Test CRC 27874556
Copy CRC 27874556
Accurately ripped (confidence 4) [47380BAF] (AR v1)
Copy OK
Track 10
Filename C:\EAC rips\10 - Black Trombone.wav
Pre-gap length 0:00:06.19
Peak level 100.0 %
Extraction speed 2.2 X
Track quality 100.0 %
Test CRC BF2B2F42
Copy CRC BF2B2F42
Accurately ripped (confidence 4) [9B4C4BBB] (AR v1)
Copy OK
Track 11
Filename C:\EAC rips\11 - Key of Blue.wav
Pre-gap length 0:00:04.00
Peak level 100.0 %
Extraction speed 2.4 X
Track quality 100.0 %
Test CRC 7386AF6B
Copy CRC 7386AF6B
Accurately ripped (confidence 4) [16EDFBBF] (AR v1)
Copy OK
Track 12
Filename C:\EAC rips\12 - Purge.wav
Pre-gap length 0:00:05.55
Peak level 100.0 %
Extraction speed 2.3 X
Track quality 100.0 %
Test CRC 5D1C2EBD
Copy CRC 5D1C2EBD
Accurately ripped (confidence 3) [26F98274] (AR v1)
Copy OK
All tracks accurately ripped
No errors occurred
End of status report
---- CUETools DB Plugin V2.1.4
[CTDB TOCID: tUqivsoFaFRkqOlnWr_MSUE7NCw-] found
Submit result: tUqivsoFaFRkqOlnWr_MSUE7NCw- has been confirmed
Track | CTDB Status
1 | (1/1) Accurately ripped
2 | (1/1) Accurately ripped
3 | (1/1) Accurately ripped
4 | (1/1) Accurately ripped
5 | (1/1) Accurately ripped
6 | (1/1) Accurately ripped
7 | (1/1) Accurately ripped
8 | (1/1) Accurately ripped
9 | (1/1) Accurately ripped
10 | (1/1) Accurately ripped
11 | (1/1) Accurately ripped
12 | (1/1) Accurately ripped
==== Log checksum 820168A33FF1116B5626933A9EE1FF6388ECFFF6AED668FAB859B6A1E9D10C42 ====
 
Содержание индексной карты (.CUE)
REM GENRE Jazz
REM DATE 2004
REM DISCID AB10E10C
REM COMMENT "ExactAudioCopy v1.0b3"
PERFORMER "Glenn Ferris 'Pentessence' Quintet"
TITLE "Skin Me!"
FILE "01 - Boy Boy.wav" WAVE
TRACK 01 AUDIO
TITLE "Boy Boy"
PERFORMER "Glenn Ferris 'Pentessence' Quintet"
ISRC FR47Q0401390
INDEX 01 00:00:00
TRACK 02 AUDIO
TITLE "Saint James Infirmary"
PERFORMER "Glenn Ferris 'Pentessence' Quintet"
ISRC FR47Q0401395
INDEX 00 06:33:20
FILE "02 - Saint James Infirmary.wav" WAVE
INDEX 01 00:00:00
TRACK 03 AUDIO
TITLE "Memoreez"
PERFORMER "Glenn Ferris 'Pentessence' Quintet"
ISRC FR47Q0401400
INDEX 00 04:36:59
FILE "03 - Memoreez.wav" WAVE
INDEX 01 00:00:00
TRACK 04 AUDIO
TITLE "Femmes, je vous aime"
PERFORMER "Glenn Ferris 'Pentessence' Quintet"
ISRC FR47Q0401405
INDEX 00 06:21:18
FILE "04 - Femmes, je vous aime.wav" WAVE
INDEX 01 00:00:00
TRACK 05 AUDIO
TITLE "Skin Me!"
PERFORMER "Glenn Ferris 'Pentessence' Quintet"
ISRC FR47Q0401410
INDEX 00 05:04:39
FILE "05 - Skin Me!.wav" WAVE
INDEX 01 00:00:00
TRACK 06 AUDIO
TITLE "Chimney Sweep"
PERFORMER "Glenn Ferris 'Pentessence' Quintet"
ISRC FR47Q0401415
INDEX 00 07:08:28
FILE "06 - Chimney Sweep.wav" WAVE
INDEX 01 00:00:00
TRACK 07 AUDIO
TITLE "Pastel Blues"
PERFORMER "Glenn Ferris 'Pentessence' Quintet"
ISRC FR47Q0401420
INDEX 00 04:44:44
FILE "07 - Pastel Blues.wav" WAVE
INDEX 01 00:00:00
TRACK 08 AUDIO
TITLE "When the Night Turns Into Day"
PERFORMER "Glenn Ferris 'Pentessence' Quintet"
ISRC FR47Q0401425
INDEX 00 07:02:56
FILE "08 - When the Night Turns Into Day.wav" WAVE
INDEX 01 00:00:00
TRACK 09 AUDIO
TITLE "Sud-Ouest Jump"
PERFORMER "Glenn Ferris 'Pentessence' Quintet"
ISRC FR47Q0401430
INDEX 00 07:24:02
FILE "09 - Sud-Ouest Jump.wav" WAVE
INDEX 01 00:00:00
TRACK 10 AUDIO
TITLE "Black Trombone"
PERFORMER "Glenn Ferris 'Pentessence' Quintet"
ISRC FR47Q0401435
INDEX 00 06:29:13
FILE "10 - Black Trombone.wav" WAVE
INDEX 01 00:00:00
TRACK 11 AUDIO
TITLE "Key of Blue"
PERFORMER "Glenn Ferris 'Pentessence' Quintet"
ISRC FR47Q0401440
INDEX 00 04:56:29
FILE "11 - Key of Blue.wav" WAVE
INDEX 01 00:00:00
TRACK 12 AUDIO
TITLE "Purge"
PERFORMER "Glenn Ferris 'Pentessence' Quintet"
ISRC FR47Q0401445
INDEX 00 06:43:01
FILE "12 - Purge.wav" WAVE
INDEX 01 00:00:00
По всем вопросам пишите личное сообщение пользователю M0p94ok.
16:53
194
Нет комментариев. Ваш будет первым!