Поиск

(Jazz-Tango-Latin) Stephan Langenberg - Carpe Diem - 1998, FLAC (tracks+.cue) lossless

Треклист:
Stephan Langenberg / Carpe Diem
Жанр: Jazz-Tango-Latin
Год издания диска: 1998
Страна: Германия
Аудио кодек: FLAC (*.flac)
Тип рипа: tracks+.cue
Битрейт аудио: lossless
Продолжительность: 45:49
Источник (релизер): Из сети. Спасибо scaramousche
Наличие сканов в содержимом раздачи: нет
Треклист:
01. Columbus
02. Capricorn's Blues
03. Chorobine
04. Twin
05. Bossandoneon
06. Medusa
07. Carpe Diem
08. Esmeralda
09. Honigmond
10. Carpe Noctem
11. Marlon's Dream
 
Лог создания рипа
Отсутствует
 
Содержание индексной карты (.CUE)
REM ACCURATERIPID 00134b1e-00a669f0-8e0abd0b
REM COMMENT "CUETools generated dummy CUE sheet"
REM TOTALDISCS 1
REM DATE 1998
REM GENRE "Jazz, Latin"
PERFORMER "Stephan Langenberg"
TITLE "Carpe Diem"
FILE "01. Columbus.flac" WAVE
TRACK 01 AUDIO
TITLE "Columbus"
PERFORMER "Stephan Langenberg"
INDEX 01 00:00:00
FILE "02. Capricorn's Blues.flac" WAVE
TRACK 02 AUDIO
TITLE "Capricorn's Blues"
PERFORMER "Stephan Langenberg"
INDEX 01 00:00:00
FILE "03. Chorobine.flac" WAVE
TRACK 03 AUDIO
TITLE "Chorobine"
PERFORMER "Stephan Langenberg"
INDEX 01 00:00:00
FILE "04. Twin.flac" WAVE
TRACK 04 AUDIO
TITLE "Twin"
PERFORMER "Stephan Langenberg"
INDEX 01 00:00:00
FILE "05. Bossandoneon.flac" WAVE
TRACK 05 AUDIO
TITLE "Bossandoneon"
PERFORMER "Stephan Langenberg"
INDEX 01 00:00:00
FILE "06. Medusa.flac" WAVE
TRACK 06 AUDIO
TITLE "Medusa"
PERFORMER "Stephan Langenberg"
INDEX 01 00:00:00
FILE "07. Carpe Diem.flac" WAVE
TRACK 07 AUDIO
TITLE "Carpe Diem"
PERFORMER "Stephan Langenberg"
INDEX 01 00:00:00
FILE "08. Esmeralda.flac" WAVE
TRACK 08 AUDIO
TITLE "Esmeralda"
PERFORMER "Stephan Langenberg"
INDEX 01 00:00:00
FILE "09. Honigmond.flac" WAVE
TRACK 09 AUDIO
TITLE "Honigmond"
PERFORMER "Stephan Langenberg"
INDEX 01 00:00:00
FILE "10. Carpe Noctem.flac" WAVE
TRACK 10 AUDIO
TITLE "Carpe Noctem"
PERFORMER "Stephan Langenberg"
INDEX 01 00:00:00
FILE "11. Marlon's Dream.flac" WAVE
TRACK 11 AUDIO
TITLE "Marlon's Dream"
PERFORMER "Stephan Langenberg"
INDEX 01 00:00:00
 
Лог проверки качества
-----------------------
DON'T MODIFY THIS FILE
-----------------------
PERFORMER: auCDtect Task Manager, ver. 1.5.1RC4 build 1.5.1.5
Copyright (c) 2008-2010 y-soft. All rights reserved
http://y-soft.org
ANALYZER: auCDtect: CD records authenticity detector, version 0.8.2
Copyright (c) 2004 Oleg Berngardt. All rights reserved.
Copyright (c) 2004 Alexander Djourik. All rights reserved.
FILE: 11. Marlon's Dream.flac
Size: 17514137 Hash: 45AA8851366DA680AE60A0707F789E81 Accuracy: -m0
Conclusion: CDDA 100%
Signature: 222FA1F17CBC586372EEA4FD70B3360632B26777
FILE: 10. Carpe Noctem.flac
Size: 27095133 Hash: 30E558A60FA63E2979C22CD006481581 Accuracy: -m0
Conclusion: CDDA 100%
Signature: 45A91E827C031C3629C23DF7EF0F48B3E1074DA1
FILE: 09. Honigmond.flac
Size: 40683262 Hash: 9811E77416D6E8ED386CCE487D4A38FE Accuracy: -m0
Conclusion: CDDA 100%
Signature: B8121C2E47BB4D54BF7EE08960A5C4562BB79E81
FILE: 08. Esmeralda.flac
Size: 21916922 Hash: 11D647A8D12DAEE21845C248FE379872 Accuracy: -m0
Conclusion: CDDA 100%
Signature: E1C95F2A7AB987007A2639E91421A754E09C9EF1
FILE: 07. Carpe Diem.flac
Size: 33515984 Hash: 4DB40EB48428E9FD20F1B862481CF2F1 Accuracy: -m0
Conclusion: CDDA 100%
Signature: 6D91074B37F11862595913782DD0BFCE7FB9BFAF
FILE: 06. Medusa.flac
Size: 24132588 Hash: 4E259A89DBA5A5337A814E0B5D7343F2 Accuracy: -m0
Conclusion: CDDA 99%
Signature: E53EFD1AA1640F127C77761AD04AC2C579972638
FILE: 05. Bossandoneon.flac
Size: 24830392 Hash: 162B8D9634B2F86D4D3F879130CB4164 Accuracy: -m0
Conclusion: CDDA 100%
Signature: 4BB884AC45CE39BD57ACC22D686FF087C1693131
FILE: 04. Twin.flac
Size: 29958879 Hash: C8D3EA2797173124B5BD3F8D8F59D420 Accuracy: -m0
Conclusion: CDDA 100%
Signature: FB654BB0B7E559F26F6FF969722019673B87D404
FILE: 03. Chorobine.flac
Size: 25349799 Hash: E4976B81959042B8AA7E1CDF0741C069 Accuracy: -m0
Conclusion: CDDA 100%
Signature: B5E1D0B6C96EB4FA4117F2755DBB29B7882CB0F1
FILE: 02. Capricorn's Blues.flac
Size: 33432489 Hash: 9C1A25E03A0D9825CC70872EDCB7E550 Accuracy: -m0
Conclusion: CDDA 100%
Signature: AAD4355B33D4CBC6EA39161517F1058EA8FB0A1D
FILE: 01. Columbus.flac
Size: 28860331 Hash: E580D2D437E82D7CB857FD9259747489 Accuracy: -m0
Conclusion: CDDA 100%
Signature: DC490AD3EA32EB920CF6AD64BD5D37B498BF3A0B
Доп. информация: Лог EAC к сожалению отсутствует. Успешно проверенно auCDtect Task Manager.
 
Об исполнителе (группе)
Stephan Langenberg: аккордео-бандонеонист из Кёльна
 
Состав
Stephan Langenberg: accordion, bandoneon
Rolf Marx: guitar
Michael Küttner: percussion + drums
20:53
349
Нет комментариев. Ваш будет первым!