Поиск

(jazz, soul, latin) VA - Black Rio - Brazil Soul Power 1971-1980 - 2002, FLAC (tracks+.cue) lossless

Треклист:
Black Rio - Brazil Soul Power 1971-1980
Жанр: jazz, soul, latin
Страна-производитель диска: UK
Год издания диска: 2002
Издатель (лейбл): STRUT
Номер по каталогу: STRUTCD 015
Страна: brazil
Аудио кодек: FLAC (*.flac)
Тип рипа: tracks+.cue
Битрейт аудио: lossless
Продолжительность: 52m
Источник (релизер): wata
Наличие сканов в содержимом раздачи: нет
Треклист:
1 Gang Do Tagarela – Melo Da Tagarela (Rapper's Delight) 4:10
2 Copa 7 – Copa 7 No Samba 2:53
3 Grupo Arembepe – Iaia 3:04
4 Uniao Black – Black Rio 2:46
5 Miguel de Deus – Cinco Anos 4:56
6 Jorge Ben – Comanche 2:58
7 Trio Mocotó – Nago 3:40
8 Banda Black Rio – Gafiera Universal 3:06
9 Toni Tornado – Podes Crer, Amizade 2:30
10 Eklipse Soul – Psicose 2:11
11 Manito – Na Baixa Da Sapateiro 3:28
12 Orlandivo* – Onde Anda O Meu Amor 3:46
13 Dom Salvador e Aboliçao – Som, Sangue E Raca 2:46
14 Antonio Carlos E Jocafi – Kabaluere 2:22
15 Orquestra E Coro – Kriola 2:27
16 Gerson King Combo – Uma Chance 5:25
 
Лог создания рипа
Exact Audio Copy V0.99 prebeta 4 from 23. January 2008
EAC extraction logfile from 24. January 2009, 21:04
Various / Black Rio - Brazil Soul Power 1971-1980
Used drive : TSSTcorpDVD+-RW TS-H653B Adapter: 1 ID: 0
Read mode : Secure
Utilize accurate stream : Yes
Defeat audio cache : Yes
Make use of C2 pointers : No
Read offset correction : 6
Overread into Lead-In and Lead-Out : No
Fill up missing offset samples with silence : Yes
Delete leading and trailing silent blocks : No
Null samples used in CRC calculations : Yes
Used interface : Native Win32 interface for Win NT & 2000
Gap handling : Appended to previous track
Used output format : User Defined Encoder
Selected bitrate : 128 kBit/s
Quality : High
Add ID3 tag : No
Command line compressor : C:\Program Files\Exact Audio Copy\Flac\flac.exe
Additional command line options : -V -8 -T "artist=%a" -T "title=%t" -T "album=%g" -T "date=%y" -T "tracknumber=%n" -T "genre=%m" %s
TOC of the extracted CD
Track | Start | Length | Start sector | End sector
---------------------------------------------------------
1 | 0:00.00 | 4:12.30 | 0 | 18929
2 | 4:12.30 | 2:50.49 | 18930 | 31728
3 | 7:03.04 | 3:02.23 | 31729 | 45401
4 | 10:05.27 | 2:46.53 | 45402 | 57904
5 | 12:52.05 | 4:52.62 | 57905 | 79866
6 | 17:44.67 | 2:53.34 | 79867 | 92875
7 | 20:38.26 | 3:37.31 | 92876 | 109181
8 | 24:15.57 | 3:08.66 | 109182 | 123347
9 | 27:24.48 | 2:36.65 | 123348 | 135112
10 | 30:01.38 | 2:12.52 | 135113 | 145064
11 | 32:14.15 | 3:28.39 | 145065 | 160703
12 | 35:42.54 | 3:42.71 | 160704 | 177424
13 | 39:25.50 | 2:44.69 | 177425 | 189793
14 | 42:10.44 | 2:23.36 | 189794 | 200554
15 | 44:34.05 | 2:28.39 | 200555 | 211693
16 | 47:02.44 | 5:26.25 | 211694 | 236168
Track 1
Filename K:\EAC\Various Artists - Black Rio - Brazil Soul Power 1971-1980\01 - Gang Do Tagarella - Gang Do Tagarella - Rappers Delight.wav
Pre-gap length 0:00:02.00
Peak level 100.0 %
Track quality 100.0 %
Test CRC 2DCDF79C
Copy CRC 2DCDF79C
Track not present in AccurateRip database
Copy OK
Track 2
Filename K:\EAC\Various Artists - Black Rio - Brazil Soul Power 1971-1980\02 - Copa 7 - Copa 7 No Samba.wav
Pre-gap length 0:00:01.37
Peak level 97.4 %
Track quality 99.9 %
Test CRC D8EF6B89
Copy CRC D8EF6B89
Track not present in AccurateRip database
Copy OK
Track 3
Filename K:\EAC\Various Artists - Black Rio - Brazil Soul Power 1971-1980\03 - Grupo Arembepe - Grupo Arembepe - Iaia.wav
Pre-gap length 0:00:01.30
Peak level 98.9 %
Track quality 99.9 %
Test CRC E0FF15E9
Copy CRC E0FF15E9
Track not present in AccurateRip database
Copy OK
Track 4
Filename K:\EAC\Various Artists - Black Rio - Brazil Soul Power 1971-1980\04 - Uniao Black - Black Rio.wav
Pre-gap length 0:00:01.46
Peak level 92.0 %
Track quality 99.9 %
Test CRC EEE51F80
Copy CRC EEE51F80
Track not present in AccurateRip database
Copy OK
Track 5
Filename K:\EAC\Various Artists - Black Rio - Brazil Soul Power 1971-1980\05 - Miguel De Deus - Cinco Anos.wav
Pre-gap length 0:00:01.69
Peak level 97.3 %
Track quality 100.0 %
Test CRC F7F14E16
Copy CRC F7F14E16
Track not present in AccurateRip database
Copy OK
Track 6
Filename K:\EAC\Various Artists - Black Rio - Brazil Soul Power 1971-1980\06 - Jorge Ben - Comanche.wav
Pre-gap length 0:00:02.18
Peak level 100.0 %
Track quality 100.0 %
Test CRC 10DDF626
Copy CRC 10DDF626
Track not present in AccurateRip database
Copy OK
Track 7
Filename K:\EAC\Various Artists - Black Rio - Brazil Soul Power 1971-1980\07 - Trio Mocoto - Nago.wav
Pre-gap length 0:00:01.30
Peak level 100.0 %
Track quality 100.0 %
Test CRC 16830F0D
Copy CRC 16830F0D
Track not present in AccurateRip database
Copy OK
Track 8
Filename K:\EAC\Various Artists - Black Rio - Brazil Soul Power 1971-1980\08 - Banda Black Rio - Gafieira Universal.wav
Pre-gap length 0:00:02.28
Peak level 90.5 %
Track quality 100.0 %
Test CRC 6DF3AD4E
Copy CRC 6DF3AD4E
Track not present in AccurateRip database
Copy OK
Track 9
Filename K:\EAC\Various Artists - Black Rio - Brazil Soul Power 1971-1980\09 - Toni Tornado - Podes Crer, Amizade.wav
Pre-gap length 0:00:01.42
Peak level 97.1 %
Track quality 100.0 %
Test CRC 360E40E1
Copy CRC 360E40E1
Track not present in AccurateRip database
Copy OK
Track 10
Filename K:\EAC\Various Artists - Black Rio - Brazil Soul Power 1971-1980\10 - Eklipse Soul - Eklipse Soul - Psicose.wav
Pre-gap length 0:00:00.92
Peak level 97.6 %
Track quality 100.0 %
Test CRC AB98789E
Copy CRC AB98789E
Track not present in AccurateRip database
Copy OK
Track 11
Filename K:\EAC\Various Artists - Black Rio - Brazil Soul Power 1971-1980\11 - Manito - Manito -Na Baixa Da Sapateiro.wav
Pre-gap length 0:00:02.26
Peak level 100.0 %
Track quality 99.9 %
Test CRC 166FE4F6
Copy CRC 166FE4F6
Track not present in AccurateRip database
Copy OK
Track 12
Filename K:\EAC\Various Artists - Black Rio - Brazil Soul Power 1971-1980\12 - Orlandivo - Onde Anda O Meu Amor.wav
Pre-gap length 0:00:01.94
Peak level 97.1 %
Track quality 100.0 %
Test CRC 23EDE84A
Copy CRC 23EDE84A
Track not present in AccurateRip database
Copy OK
Track 13
Filename K:\EAC\Various Artists - Black Rio - Brazil Soul Power 1971-1980\13 - Dom Salvador e Banda Abolicao - - Dom Salvador E Abolicao - Som, Sangue E Raca.wav
Pre-gap length 0:00:02.14
Peak level 91.1 %
Track quality 100.0 %
Test CRC B48650E4
Copy CRC B48650E4
Track not present in AccurateRip database
Copy OK
Track 14
Filename K:\EAC\Various Artists - Black Rio - Brazil Soul Power 1971-1980\14 - Antonio Carlos & Jocafi - Kabaluere.wav
Pre-gap length 0:00:02.00
Peak level 83.9 %
Track quality 100.0 %
Test CRC 11FFD176
Copy CRC 11FFD176
Track not present in AccurateRip database
Copy OK
Track 15
Filename K:\EAC\Various Artists - Black Rio - Brazil Soul Power 1971-1980\15 - Orquestra E Coro - Orquestra E Coro - Kriola.wav
Pre-gap length 0:00:01.53
Peak level 99.1 %
Track quality 100.0 %
Test CRC E7D7A836
Copy CRC E7D7A836
Track not present in AccurateRip database
Copy OK
Track 16
Filename K:\EAC\Various Artists - Black Rio - Brazil Soul Power 1971-1980\16 - Gerson King Combo - Uma Chance.wav
Pre-gap length 0:00:01.41
Peak level 87.1 %
Track quality 100.0 %
Test CRC 5B24BCEE
Copy CRC 5B24BCEE
Track not present in AccurateRip database
Copy OK
None of the tracks are present in the AccurateRip database
No errors occurred
End of status report
 
Содержание индексной карты (.CUE)
REM GENRE MPB
REM DATE 2002
REM DISCID DA0C4C10
REM COMMENT "ExactAudioCopy v0.99pb4"
PERFORMER "Various"
TITLE "Black Rio - Brazil Soul Power 1971-1980"
FILE "Various Artists - Black Rio - Brazil Soul Power 1971-1980\01 - Gang Do Tagarella - Gang Do Tagarella - Rappers Delight.wav" WAVE
TRACK 01 AUDIO
TITLE "Gang Do Tagarella - Gang Do Tagarella - Rappers Delight"
PERFORMER "Gang Do Tagarella - Gang Do Tagarella - Rappers Delight"
INDEX 01 00:00:00
TRACK 02 AUDIO
TITLE "Copa 7 - Copa 7 No Samba"
PERFORMER "Copa 7 - Copa 7 No Samba"
INDEX 00 04:11:02
FILE "Various Artists - Black Rio - Brazil Soul Power 1971-1980\02 - Copa 7 - Copa 7 No Samba.wav" WAVE
INDEX 01 00:00:00
TRACK 03 AUDIO
TITLE "Grupo Arembepe - Grupo Arembepe - Iaia"
PERFORMER "Grupo Arembepe - Grupo Arembepe - Iaia"
INDEX 00 02:49:26
FILE "Various Artists - Black Rio - Brazil Soul Power 1971-1980\03 - Grupo Arembepe - Grupo Arembepe - Iaia.wav" WAVE
INDEX 01 00:00:00
TRACK 04 AUDIO
TITLE "Uniao Black - Black Rio"
PERFORMER "Uniao Black - Black Rio"
INDEX 00 03:00:63
FILE "Various Artists - Black Rio - Brazil Soul Power 1971-1980\04 - Uniao Black - Black Rio.wav" WAVE
INDEX 01 00:00:00
TRACK 05 AUDIO
TITLE "Miguel De Deus - Cinco Anos"
PERFORMER "Miguel De Deus - Cinco Anos"
INDEX 00 02:45:01
FILE "Various Artists - Black Rio - Brazil Soul Power 1971-1980\05 - Miguel De Deus - Cinco Anos.wav" WAVE
INDEX 01 00:00:00
TRACK 06 AUDIO
TITLE "Jorge Ben - Comanche"
PERFORMER "Jorge Ben - Comanche"
INDEX 00 04:50:48
FILE "Various Artists - Black Rio - Brazil Soul Power 1971-1980\06 - Jorge Ben - Comanche.wav" WAVE
INDEX 01 00:00:00
TRACK 07 AUDIO
TITLE "Trio Mocoto - Nago"
PERFORMER "Trio Mocoto - Nago"
INDEX 00 02:52:11
FILE "Various Artists - Black Rio - Brazil Soul Power 1971-1980\07 - Trio Mocoto - Nago.wav" WAVE
INDEX 01 00:00:00
TRACK 08 AUDIO
TITLE "Banda Black Rio - Gafieira Universal"
PERFORMER "Banda Black Rio - Gafieira Universal"
INDEX 00 03:35:10
FILE "Various Artists - Black Rio - Brazil Soul Power 1971-1980\08 - Banda Black Rio - Gafieira Universal.wav" WAVE
INDEX 01 00:00:00
TRACK 09 AUDIO
TITLE "Toni Tornado - Podes Crer, Amizade"
PERFORMER "Toni Tornado - Podes Crer, Amizade"
INDEX 00 03:07:34
FILE "Various Artists - Black Rio - Brazil Soul Power 1971-1980\09 - Toni Tornado - Podes Crer, Amizade.wav" WAVE
INDEX 01 00:00:00
TRACK 10 AUDIO
TITLE "Eklipse Soul - Eklipse Soul - Psicose"
PERFORMER "Eklipse Soul - Eklipse Soul - Psicose"
INDEX 00 02:35:71
FILE "Various Artists - Black Rio - Brazil Soul Power 1971-1980\10 - Eklipse Soul - Eklipse Soul - Psicose.wav" WAVE
INDEX 01 00:00:00
TRACK 11 AUDIO
TITLE "Manito - Manito -Na Baixa Da Sapateiro"
PERFORMER "Manito - Manito -Na Baixa Da Sapateiro"
INDEX 00 02:10:32
FILE "Various Artists - Black Rio - Brazil Soul Power 1971-1980\11 - Manito - Manito -Na Baixa Da Sapateiro.wav" WAVE
INDEX 01 00:00:00
TRACK 12 AUDIO
TITLE "Orlandivo - Onde Anda O Meu Amor"
PERFORMER "Orlandivo - Onde Anda O Meu Amor"
INDEX 00 03:26:43
FILE "Various Artists - Black Rio - Brazil Soul Power 1971-1980\12 - Orlandivo - Onde Anda O Meu Amor.wav" WAVE
INDEX 01 00:00:00
TRACK 13 AUDIO
TITLE "Dom Salvador e Banda Abolicao - - Dom Salvador E Abolicao - Som, Sangue E Raca"
PERFORMER "Dom Salvador e Banda Abolicao - - Dom Salvador E Abolicao - Som, Sangue E Raca"
INDEX 00 03:40:60
FILE "Various Artists - Black Rio - Brazil Soul Power 1971-1980\13 - Dom Salvador e Banda Abolicao - - Dom Salvador E Abolicao - Som, Sangue E Raca.wav" WAVE
INDEX 01 00:00:00
TRACK 14 AUDIO
TITLE "Antonio Carlos & Jocafi - Kabaluere"
PERFORMER "Antonio Carlos & Jocafi - Kabaluere"
INDEX 00 02:42:69
FILE "Various Artists - Black Rio - Brazil Soul Power 1971-1980\14 - Antonio Carlos & Jocafi - Kabaluere.wav" WAVE
INDEX 01 00:00:00
TRACK 15 AUDIO
TITLE "Orquestra E Coro - Orquestra E Coro - Kriola"
PERFORMER "Orquestra E Coro - Orquestra E Coro - Kriola"
INDEX 00 02:21:71
FILE "Various Artists - Black Rio - Brazil Soul Power 1971-1980\15 - Orquestra E Coro - Orquestra E Coro - Kriola.wav" WAVE
INDEX 01 00:00:00
TRACK 16 AUDIO
TITLE "Gerson King Combo - Uma Chance"
PERFORMER "Gerson King Combo - Uma Chance"
INDEX 00 02:27:08
FILE "Various Artists - Black Rio - Brazil Soul Power 1971-1980\16 - Gerson King Combo - Uma Chance.wav" WAVE
INDEX 01 00:00:00
20:54
281
Нет комментариев. Ваш будет первым!