Поиск

(World Fusion, Latin, Contemporary Jazz) Esperanza Spalding - Chamber Music Society - 2010, FLAC (tracks+.cue) lossless

Esperanza Spalding / Chamber Music Society
Жанр: World Fusion, Latin, Contemporary Jazz
Год издания диска: 2010
Издатель (лейбл): Heads Up
Номер по каталогу: HUI-32454-01
Страна: USA
Аудио кодек: FLAC (*.flac)
Тип рипа: tracks+.cue
Битрейт аудио: lossless
Продолжительность: 00:56:21
Источник (релизер): supermaik
Наличие сканов в содержимом раздачи: нет
Треклист:
01. Little Fly [3:33]
02. Knowledge Of Good And Evil [7:59]
03. Really Very Small [2:44]
04. Chacarera [6:40]
05. Wild Is The Wind [5:37]
06. Apple Blossom [6:02]
07. As A Sprout [0:41]
08. What A Friend [4:54]
09. Winter Sun [6:48]
10. Inutil Pasagem [4:38]
11. Short And Sweet [5:52]
From Amazon.com
 
Лог создания рипа
Exact Audio Copy V0.99 prebeta 5 from 4. May 2009
EAC extraction logfile from 23. August 2010, 1:10
Esperanza Spalding / Chamber Music Society
Used drive : TSSTcorpCD/DVDW TS-H652M Adapter: 5 ID: 0
Read mode : Secure
Utilize accurate stream : Yes
Defeat audio cache : Yes
Make use of C2 pointers : No
Read offset correction : 6
Overread into Lead-In and Lead-Out : No
Fill up missing offset samples with silence : Yes
Delete leading and trailing silent blocks : No
Null samples used in CRC calculations : Yes
Used interface : Installed external ASPI interface
Gap handling : Appended to previous track
Used output format : User Defined Encoder
Selected bitrate : 128 kBit/s
Quality : High
Add ID3 tag : No
Command line compressor : C:\Program Files\Exact Audio Copy\Flac\flac.exe
Additional command line options : -V -8 -T "artist=%a" -T "title=%t" -T "album=%g" -T "date=%y" -T "tracknumber=%n" -T "genre=%m" %s
TOC of the extracted CD
Track | Start | Length | Start sector | End sector
---------------------------------------------------------
1 | 0:00.00 | 3:33.13 | 0 | 15987
2 | 3:33.13 | 7:59.19 | 15988 | 51931
3 | 11:32.32 | 2:44.19 | 51932 | 64250
4 | 14:16.51 | 7:27.61 | 64251 | 97836
5 | 21:44.37 | 5:37.10 | 97837 | 123121
6 | 27:21.47 | 6:02.39 | 123122 | 150310
7 | 33:24.11 | 0:41.44 | 150311 | 153429
8 | 34:05.55 | 4:54.51 | 153430 | 175530
9 | 39:00.31 | 6:48.58 | 175531 | 206188
10 | 45:49.14 | 4:38.10 | 206189 | 227048
11 | 50:27.24 | 5:52.58 | 227049 | 253506
Track 1
Filename C:\EAC Rips\Esperanza Spalding - Chamber Music Society\01 - Little Fly.wav
Pre-gap length 0:00:02.00
Peak level 98.8 %
Track quality 99.9 %
Test CRC 17517C94
Copy CRC 17517C94
Track not present in AccurateRip database
Copy OK
Track 2
Filename C:\EAC Rips\Esperanza Spalding - Chamber Music Society\02 - Knowledge Of Good And Evil.wav
Peak level 98.9 %
Track quality 100.0 %
Test CRC 7E20F389
Copy CRC 7E20F389
Track not present in AccurateRip database
Copy OK
Track 3
Filename C:\EAC Rips\Esperanza Spalding - Chamber Music Society\03 - Really Very Small.wav
Peak level 98.8 %
Track quality 100.0 %
Test CRC 89828380
Copy CRC 89828380
Track not present in AccurateRip database
Copy OK
Track 4
Filename C:\EAC Rips\Esperanza Spalding - Chamber Music Society\04 - Chacarera.wav
Peak level 98.9 %
Track quality 100.0 %
Test CRC CFB8005F
Copy CRC CFB8005F
Track not present in AccurateRip database
Copy OK
Track 5
Filename C:\EAC Rips\Esperanza Spalding - Chamber Music Society\05 - Wild Is The Wind.wav
Pre-gap length 0:00:47.02
Peak level 98.8 %
Track quality 100.0 %
Test CRC A63DB46D
Copy CRC A63DB46D
Track not present in AccurateRip database
Copy OK
Track 6
Filename C:\EAC Rips\Esperanza Spalding - Chamber Music Society\06 - Apple Blossom.wav
Peak level 93.1 %
Track quality 100.0 %
Test CRC 74E78DA0
Copy CRC 74E78DA0
Track not present in AccurateRip database
Copy OK
Track 7
Filename C:\EAC Rips\Esperanza Spalding - Chamber Music Society\07 - As A Sprout.wav
Peak level 47.5 %
Track quality 100.0 %
Test CRC 03F0B4DC
Copy CRC 03F0B4DC
Track not present in AccurateRip database
Copy OK
Track 8
Filename C:\EAC Rips\Esperanza Spalding - Chamber Music Society\08 - What A Friend.wav
Peak level 98.9 %
Track quality 100.0 %
Test CRC E7C7E512
Copy CRC E7C7E512
Track not present in AccurateRip database
Copy OK
Track 9
Filename C:\EAC Rips\Esperanza Spalding - Chamber Music Society\09 - Winter Sun.wav
Peak level 98.8 %
Track quality 99.9 %
Test CRC B9B95498
Copy CRC B9B95498
Track not present in AccurateRip database
Copy OK
Track 10
Filename C:\EAC Rips\Esperanza Spalding - Chamber Music Society\10 - Inъtil Paisagem.wav
Peak level 98.8 %
Track quality 100.0 %
Test CRC 53A6D5BC
Copy CRC 53A6D5BC
Track not present in AccurateRip database
Copy OK
Track 11
Filename C:\EAC Rips\Esperanza Spalding - Chamber Music Society\11 - Short And Sweet.wav
Peak level 98.8 %
Track quality 100.0 %
Test CRC 4A79668B
Copy CRC 4A79668B
Track not present in AccurateRip database
Copy OK
None of the tracks are present in the AccurateRip database
No errors occurred
End of status report
 
Содержание индексной карты (.CUE)
REM GENRE Jazz
REM DATE 2010
REM DISCID 870D340B
REM COMMENT "ExactAudioCopy v0.99pb5"
PERFORMER "Esperanza Spalding"
TITLE "Chamber Music Society"
FILE "Esperanza Spalding - Chamber Music Society\01 - Little Fly.wav" WAVE
TRACK 01 AUDIO
TITLE "Little Fly"
PERFORMER "Esperanza Spalding"
INDEX 01 00:00:00
FILE "Esperanza Spalding - Chamber Music Society\02 - Knowledge Of Good And Evil.wav" WAVE
TRACK 02 AUDIO
TITLE "Knowledge Of Good And Evil"
PERFORMER "Esperanza Spalding"
INDEX 01 00:00:00
FILE "Esperanza Spalding - Chamber Music Society\03 - Really Very Small.wav" WAVE
TRACK 03 AUDIO
TITLE "Really Very Smal"
PERFORMER "Esperanza Spalding"
INDEX 01 00:00:00
FILE "Esperanza Spalding - Chamber Music Society\04 - Chacarera.wav" WAVE
TRACK 04 AUDIO
TITLE "Chacarera"
PERFORMER "Esperanza Spalding"
INDEX 01 00:00:00
TRACK 05 AUDIO
TITLE "Wild Is The Wind"
PERFORMER "Esperanza Spalding"
INDEX 00 06:40:59
FILE "Esperanza Spalding - Chamber Music Society\05 - Wild Is The Wind.wav" WAVE
INDEX 01 00:00:00
FILE "Esperanza Spalding - Chamber Music Society\06 - Apple Blossom.wav" WAVE
TRACK 06 AUDIO
TITLE "Apple Blossom"
PERFORMER "Esperanza Spalding"
INDEX 01 00:00:00
FILE "Esperanza Spalding - Chamber Music Society\07 - As A Sprout.wav" WAVE
TRACK 07 AUDIO
TITLE "As A Sprout"
PERFORMER "Esperanza Spalding"
INDEX 01 00:00:00
FILE "Esperanza Spalding - Chamber Music Society\08 - What A Friend.wav" WAVE
TRACK 08 AUDIO
TITLE "What A Friend"
PERFORMER "Esperanza Spalding"
INDEX 01 00:00:00
FILE "Esperanza Spalding - Chamber Music Society\09 - Winter Sun.wav" WAVE
TRACK 09 AUDIO
TITLE "Winter Sun"
PERFORMER "Esperanza Spalding"
INDEX 01 00:00:00
FILE "Esperanza Spalding - Chamber Music Society\10 - Inъtil Paisagem.wav" WAVE
TRACK 10 AUDIO
TITLE "Inutil Pasagem"
PERFORMER "Esperanza Spalding"
INDEX 01 00:00:00
FILE "Esperanza Spalding - Chamber Music Society\11 - Short And Sweet.wav" WAVE
TRACK 11 AUDIO
TITLE "Short And Sweet"
PERFORMER "Esperanza Spalding"
INDEX 01 00:00:00
21:55
399
Нет комментариев. Ваш будет первым!