Поиск

(Jazz / Smooth Jazz / Latin jazz) VA - Latin & Brazilian Vibes - 1996, FLAC (tracks +.cue) lossless

Треклист:
Latin & Brazilian Vibes
Жанр: Jazz / Smooth Jazz / Latin jazz
Страна-производитель диска: Greece
Год издания диска: 1996
Издатель (лейбл): Polygram
Номер по каталогу: 374-2
Страна: Brazil
Аудио кодек: FLAC (*.flac)
Тип рипа: image+.cue
Битрейт аудио: lossless
Продолжительность: 54:40
Источник (релизер): jazzntzaz
Наличие сканов в содержимом раздачи: да
Треклист:
01. Gato Barbieri - Europa
02. Stan Getz, Charlie Byrd - Desafinado
03. Wes Montgomery - Tequila
04. Baden Powell - Tristeza
05. Cal Tjader, Eddie Palmieri - Poinciana
06. Elis Regina - Aquarella Do Brasil
07. Patato & Totico - Mas Que Nada
08. Milton Nascimento - Vera Cruz
09. Machito - Tanga
10. McLaughlin, Di Meola, De Lucia - Mediterranean Sundance- Rio Ancho (Live)
11. Paco De Lucia - Mi Nino Curro (Live)
 
Backcover
 
CD
 
Лог создания рипа
Exact Audio Copy V0.99 prebeta 5 from 4. May 2009
EAC extraction logfile from 21. September 2010, 23:00
Various / Latin & Brazilian Vibes (Jazz & Tzaz 45)
Used drive : HL-DT-STDVD-RAM GH22NP20 Adapter: 1 ID: 1
Read mode : Secure
Utilize accurate stream : Yes
Defeat audio cache : Yes
Make use of C2 pointers : No
Read offset correction : 102
Overread into Lead-In and Lead-Out : No
Fill up missing offset samples with silence : Yes
Delete leading and trailing silent blocks : No
Null samples used in CRC calculations : Yes
Used interface : Installed external ASPI interface
Gap handling : Appended to previous track
Used output format : User Defined Encoder
Selected bitrate : 1024 kBit/s
Quality : High
Add ID3 tag : No
Command line compressor : C:\Program Files\Exact Audio Copy\FLAC\FLAC.EXE
Additional command line options : -5 -V -T "ARTIST=%a" -T "TITLE=%t" -T "ALBUM=%g" -T "DATE=%y" -T "TRACKNUMBER=%n" -T "GENRE=%m" -T "COMMENT=%e" %s -o %d
Use compression offset : 48
TOC of the extracted CD
Track | Start | Length | Start sector | End sector
---------------------------------------------------------
1 | 0:00.00 | 4:20.68 | 0 | 19567
2 | 4:20.68 | 5:51.07 | 19568 | 45899
3 | 10:12.00 | 3:21.13 | 45900 | 60987
4 | 13:33.13 | 3:20.10 | 60988 | 75997
5 | 16:53.23 | 3:27.47 | 75998 | 91569
6 | 20:20.70 | 3:26.20 | 91570 | 107039
7 | 23:47.15 | 2:34.60 | 107040 | 118649
8 | 26:22.00 | 3:12.03 | 118650 | 133052
9 | 29:34.03 | 5:10.15 | 133053 | 156317
10 | 34:44.18 | 11:28.57 | 156318 | 207974
11 | 46:13.00 | 8:27.53 | 207975 | 246052
Track 1
Filename C:\New Folder\01. Gato Barbieri - Europa.wav
Pre-gap length 0:00:02.00
Peak level 91.4 %
Track quality 100.0 %
Test CRC D0640B67
Copy CRC D0640B67
Track not present in AccurateRip database
Copy OK
Track 2
Filename C:\New Folder\02. Stan Getz, Charlie Byrd - Desafinado.wav
Peak level 87.5 %
Track quality 100.0 %
Test CRC 485BD027
Copy CRC 485BD027
Track not present in AccurateRip database
Copy OK
Track 3
Filename C:\New Folder\03. Wes Montgomery - Tequila.wav
Pre-gap length 0:00:01.12
Peak level 98.4 %
Track quality 100.0 %
Test CRC 4B9470FD
Copy CRC 4B9470FD
Track not present in AccurateRip database
Copy OK
Track 4
Filename C:\New Folder\04. Baden Powell - Tristeza.wav
Pre-gap length 0:00:01.53
Peak level 95.7 %
Track quality 100.0 %
Test CRC F9F7F069
Copy CRC F9F7F069
Track not present in AccurateRip database
Copy OK
Track 5
Filename C:\New Folder\05. Cal Tjader, Eddie Palmieri - Poinciana.wav
Pre-gap length 0:00:01.73
Peak level 100.0 %
Track quality 100.0 %
Test CRC 746827CB
Copy CRC 746827CB
Track not present in AccurateRip database
Copy OK
Track 6
Filename C:\New Folder\06. Elis Regina - Aquarella Do Brasil.wav
Pre-gap length 0:00:02.67
Peak level 98.3 %
Track quality 100.0 %
Test CRC EA73901A
Copy CRC EA73901A
Track not present in AccurateRip database
Copy OK
Track 7
Filename C:\New Folder\07. Patato & Totico - Mas Que Nada.wav
Pre-gap length 0:00:01.30
Peak level 93.8 %
Track quality 100.0 %
Test CRC 8E109989
Copy CRC 8E109989
Track not present in AccurateRip database
Copy OK
Track 8
Filename C:\New Folder\08. Milton Nascimento - Vera Cruz.wav
Pre-gap length 0:00:01.37
Peak level 86.2 %
Track quality 100.0 %
Test CRC 1224E577
Copy CRC 1224E577
Track not present in AccurateRip database
Copy OK
Track 9
Filename C:\New Folder\09. Machito - Tanga.wav
Pre-gap length 0:00:01.48
Peak level 88.3 %
Track quality 100.0 %
Test CRC 5032912B
Copy CRC 5032912B
Track not present in AccurateRip database
Copy OK
Track 10
Filename C:\New Folder\10. McLaughlin, Di Meola, De Lucia - Mediterranean Sundance- Rio Anco (Live).wav
Pre-gap length 0:00:01.60
Peak level 87.6 %
Track quality 100.0 %
Test CRC 9A9612B3
Copy CRC 9A9612B3
Track not present in AccurateRip database
Copy OK
Track 11
Filename C:\New Folder\11. Paco De Lucia - Mi Nino Curro (Live).wav
Pre-gap length 0:00:02.60
Peak level 100.0 %
Track quality 100.0 %
Test CRC 49FCA351
Copy CRC 49FCA351
Track not present in AccurateRip database
Copy OK
None of the tracks are present in the AccurateRip database
No errors occurred
End of status report
 
Содержание индексной карты (.CUE)
REM GENRE Jazz
REM DATE 1996
REM DISCID 8F0CD00B
REM COMMENT "ExactAudioCopy v0.99pb5"
PERFORMER "Various"
TITLE "Latin & Brazilian Vibes (Jazz & Tzaz 45)"
FILE "01. Gato Barbieri - Europa.wav" WAVE
TRACK 01 AUDIO
TITLE "Europa"
PERFORMER "Gato Barbieri"
INDEX 01 00:00:00
FILE "02. Stan Getz, Charlie Byrd - Desafinado.wav" WAVE
TRACK 02 AUDIO
TITLE "Desafinado"
PERFORMER "Stan Getz, Charlie Byrd"
INDEX 01 00:00:00
TRACK 03 AUDIO
TITLE "Tequila"
PERFORMER "Wes Montgomery"
INDEX 00 05:49:70
FILE "03. Wes Montgomery - Tequila.wav" WAVE
INDEX 01 00:00:00
TRACK 04 AUDIO
TITLE "Tristeza"
PERFORMER "Baden Powell"
INDEX 00 03:19:35
FILE "04. Baden Powell - Tristeza.wav" WAVE
INDEX 01 00:00:00
TRACK 05 AUDIO
TITLE "Poinciana"
PERFORMER "Cal Tjader, Eddie Palmieri"
INDEX 00 03:18:12
FILE "05. Cal Tjader, Eddie Palmieri - Poinciana.wav" WAVE
INDEX 01 00:00:00
TRACK 06 AUDIO
TITLE "Aquarella Do Brasil"
PERFORMER "Elis Regina"
INDEX 00 03:24:55
FILE "06. Elis Regina - Aquarella Do Brasil.wav" WAVE
INDEX 01 00:00:00
TRACK 07 AUDIO
TITLE "Mas Que Nada"
PERFORMER "Patato & Totico"
INDEX 00 03:24:65
FILE "07. Patato & Totico - Mas Que Nada.wav" WAVE
INDEX 01 00:00:00
TRACK 08 AUDIO
TITLE "Vera Cruz"
PERFORMER "Milton Nascimento"
INDEX 00 02:33:23
FILE "08. Milton Nascimento - Vera Cruz.wav" WAVE
INDEX 01 00:00:00
TRACK 09 AUDIO
TITLE "Tanga"
PERFORMER "Machito"
INDEX 00 03:10:30
FILE "09. Machito - Tanga.wav" WAVE
INDEX 01 00:00:00
TRACK 10 AUDIO
TITLE "Mediterranean Sundance- Rio Anco (Live)"
PERFORMER "McLaughlin, Di Meola, De Lucia"
INDEX 00 05:08:30
FILE "10. McLaughlin, Di Meola, De Lucia - Mediterranean Sundance- Rio Anco (Live).wav" WAVE
INDEX 01 00:00:00
TRACK 11 AUDIO
TITLE "Mi Nino Curro (Live)"
PERFORMER "Paco De Lucia"
INDEX 00 11:25:72
FILE "11. Paco De Lucia - Mi Nino Curro (Live).wav" WAVE
INDEX 01 00:00:00
 
Лог проверки качества
AUDIOCHECKER v1.2 - by Dester - opdester@freemail.hu
~~~~~~~~~~~~~~~~~
01 -===- F:\torrent\VA - Latin & Brazilian Vibes (Jazz & Tzaz 45)\01. Gato Barbieri - Europa.flac
Extracted successfully
Conclusion: This track looks like CDDA with probability 100%
02 -===- F:\torrent\VA - Latin & Brazilian Vibes (Jazz & Tzaz 45)\02. Stan Getz, Charlie Byrd - Desafinado.flac
Extracted successfully
Conclusion: This track looks like CDDA with probability 95%
03 -===- F:\torrent\VA - Latin & Brazilian Vibes (Jazz & Tzaz 45)\03. Wes Montgomery - Tequila.flac
Extracted successfully
Conclusion: This track looks like CDDA with probability 100%
04 -===- F:\torrent\VA - Latin & Brazilian Vibes (Jazz & Tzaz 45)\04. Baden Powell - Tristeza.flac
Extracted successfully
Conclusion: This track looks like CDDA with probability 100%
05 -===- F:\torrent\VA - Latin & Brazilian Vibes (Jazz & Tzaz 45)\05. Cal Tjader, Eddie Palmieri - Poinciana.flac
Extracted successfully
Conclusion: This track looks like CDDA with probability 100%
06 -===- F:\torrent\VA - Latin & Brazilian Vibes (Jazz & Tzaz 45)\06. Elis Regina - Aquarella Do Brasil.flac
Extracted successfully
Conclusion: This track looks like CDDA with probability 100%
07 -===- F:\torrent\VA - Latin & Brazilian Vibes (Jazz & Tzaz 45)\07. Patato & Totico - Mas Que Nada.flac
Extracted successfully
Conclusion: This track looks like CDDA with probability 99%
08 -===- F:\torrent\VA - Latin & Brazilian Vibes (Jazz & Tzaz 45)\08. Milton Nascimento - Vera Cruz.flac
Extracted successfully
Conclusion: This track looks like CDDA with probability 100%
09 -===- F:\torrent\VA - Latin & Brazilian Vibes (Jazz & Tzaz 45)\09. Machito - Tanga.flac
Extracted successfully
Conclusion: This track looks like CDDA with probability 99%
10 -===- F:\torrent\VA - Latin & Brazilian Vibes (Jazz & Tzaz 45)\10. McLaughlin, Di Meola, De Lucia - Mediterranean Sundance- Rio Anco (Live).flac
Extracted successfully
Conclusion: This track looks like CDDA with probability 95%
11 -===- F:\torrent\VA - Latin & Brazilian Vibes (Jazz & Tzaz 45)\11. Paco De Lucia - Mi Nino Curro (Live).flac
Extracted successfully
Conclusion: This track looks like CDDA with probability 100%
18:33
289
Нет комментариев. Ваш будет первым!