Поиск

(Contemporary Jazz, Folk, Electro) DagaDana - Malenka - 2010, FLAC (image+.cue) lossless

(Contemporary Jazz, Folk, Electro) DagaDana - Malenka - 2010, FLAC (image+.cue) lossless
Треклист:
DagaDana - Maleńka
Жанр: Contemporary Jazz, Folk, Electro
Страна-производитель диска: France
Год издания диска: 2010
Издатель (лейбл): Offside Records
Номер по каталогу: offside 005
Страна: Poland, Ukraine
Аудио кодек: FLAC (*.flac)
Тип рипа: image+.cue
Битрейт аудио: lossless
Продолжительность: 52:20
Наличие сканов в содержимом раздачи: да
Треклист:
1. Preludium kolir szczastia
2. Kolir szczastia
3. Tango
4. Świniorz
5. Roman
6. Akademia
7. Interludium szumila liszczyna
8. Szumila liszczyna
9. Bosa na rosie
10. Sny
11. Dagadana
12. Maleńka
 
Лог создания рипа
Exact Audio Copy V0.99 prebeta 5 from 4. May 2009
Sprawozdanie ze zgrywania programem EAC z 14. Kwietnia 2010, 18:53
DagaDana / Maleсka
Uїyty napкd: TSSTcorpCDDVDW SH-S222L Adapter: 0 ID: 1
Tryb odczytu: : Bezpieczny
Dokіadny strumieс : Tak
Neutralizacja bufora napкdu : Tak
Zwracanie bікdуw C2 : Nie
Korekta poіoїenia dla odczytu : 6
Nadczytywanie w obszarach LeadIn i LeadOut : Nie
Dopeіnianie cisz№ brakuj№cych prуbek : Tak
Usuwanie pocz№tkowych i koсcowych blokуw ciszy : Nie
Do przeliczenia sumy kontrolnej CRC uїywane s№ prуbki zerowe : Nie
Interfejs : Wewnкtrzny interfejs Win32 dla Windows NT i 2000
Uїyty format wyjњciowy : Koder uїytkownika
Wybrana przepіywnoњж bitуw : 768 kBit/s
Jakoњж : Wysoka
Dodawanie znacznikуw ID3 : Tak
Kompresor linii poleceс : C:\Program Files\FLAC\flac.exe
TOC zgranej pіyty
Utwуr | Pocz№tek | Dіugoњж | Sektor pocz№tkowy | Sektor koсcowy
------------------------------------------------------------------
1 | 0:00.00 | 1:27.73 | 0 | 6597
2 | 1:27.73 | 4:06.31 | 6598 | 25078
3 | 5:34.29 | 6:23.39 | 25079 | 53842
4 | 11:57.68 | 3:53.22 | 53843 | 71339
5 | 15:51.15 | 4:42.61 | 71340 | 92550
6 | 20:34.01 | 3:55.32 | 92551 | 110207
7 | 24:29.33 | 1:51.44 | 110208 | 118576
8 | 26:21.02 | 5:15.73 | 118577 | 142274
9 | 31:37.00 | 4:41.69 | 142275 | 163418
10 | 36:18.69 | 3:27.34 | 163419 | 178977
11 | 39:46.28 | 7:36.54 | 178978 | 213231
12 | 47:23.07 | 4:57.64 | 213232 | 235570
Stan i bікdy zakresu
Wybrany zakres
Њcieїka pliku K:\DagaDana (2010) Maleсka\DagaDana - Maleсka.wav
Poziom wysterowania 100.0 %
Jakoњж zakresu 100.0 %
CRC kopii 896F08EC
Kopia bezbікdna
Nie byіo bікdуw
Podsumowanie AccurateRip
Nagranie 1 nie ma w bazie danych
Nagranie 2 nie ma w bazie danych
Nagranie 3 nie ma w bazie danych
Nagranie 4 nie ma w bazie danych
Nagranie 5 nie ma w bazie danych
Nagranie 6 nie ma w bazie danych
Nagranie 7 nie ma w bazie danych
Nagranie 8 nie ma w bazie danych
Nagranie 9 nie ma w bazie danych
Nagranie 10 nie ma w bazie danych
Nagranie 11 nie ma w bazie danych
Nagranie 12 nie ma w bazie danych
Їadnego nagrania nie ma w bazie danych AccurateRip
Koniec raportu
 
Состав
Goście i brzmienia wszelakie:
Tomasz Duda - (Baaba, Pink Freud, Ania Dąbrowska, Kasia Nosowska,) saksofony, klarnet basowy, flet
Marek Pospieszalski (EMPE3, Zakopower) - saksofony, klarnet basowy
Karim Martusewicz (Voo Voo, Karimski Club) - piła
Remigiusz Zawadzki (Afro Kolektyw, Excessive Machine) - instrumenty perkusyjne
Gabriela Kulka - śpiew, klawinet
Szymon Piguła - akordeon
Mikołaj Kubicki - trąbka
Michał Hoffmann - Afrojax. (Afro Kolektyw)- rap
Jarosław Zawadzki (Zbigniew Wodecki, Walkaway) - fisharmonia
19:32
283
Нет комментариев. Ваш будет первым!