Поиск

(Afro-Cuban, Afrobeat, Soul, Funk) VA - Afro-Rock Volume One. A Collection Of Rare And Unreleased Afro-Beat Quarried From Across The Continent - 2010, FLAC (image+.cue) lossless

(Afro-Cuban, Afrobeat, Soul, Funk) VA - Afro-Rock Volume One. A Collection Of Rare And Unreleased Afro-Beat Quarried From Across The Continent - 2010, FLAC (image+.cue) lossless
Треклист:
Afro-Rock Volume One.
A Collection Of Rare And Unreleased Afro-Beat Quarried From Across The Continent
Жанр: Afro-Cuban, Afrobeat, Soul, Funk
Страна-производитель диска: Germany
Год издания диска: 2010. переиздание с Kona Records (2001)
Издатель (лейбл): Strut / Kona Records
Номер по каталогу: STRUT059CD
Аудио кодек: FLAC (*.flac)
Тип рипа: image+.cue
Битрейт аудио: lossless
Продолжительность: 1:08:47
Источник (релизер): cd
Наличие сканов в содержимом раздачи: нет
Треклист:
01 Jingo - Fever (6:43)
02 Geraldo Pino & The Heartbeats - Heavy Heavy Heavy (6:33)
03 Steele Beauttah - Africa (3:50)
04 Mercury Dance Band - Envy No Good (4:52)
05 Dackin Dackino - Yuda (12:07)
06 K. Frimpong & His Cubano Fiestas - Kyenkyen Bi Adi M'awu (6:55)
07 Orchestra Lissanga - Okuzua (8:48)
08 Super Mambo 69 - Sweeper Soul (2:44)
09 Fathili & The Yahoos - Mabala (4:09)
10 Bokoor Band - Onukpa Swapo (3:16)
11 Nkansah And Yaanom - Pem Dwe (4:45)
12 Jingo - Keep On Holding On (Part 1) (4:04)
 
Лог создания рипа
Exact Audio Copy V0.99 prebeta 5 from 4. May 2009
EAC extraction logfile from 5. December 2010, 17:21
Various / Afro-Rock Volume One
Used drive : PIONEER DVD-RW DVR-111 Adapter: 2 ID: 0
Read mode : Secure
Utilize accurate stream : Yes
Defeat audio cache : Yes
Make use of C2 pointers : No
Read offset correction : 48
Overread into Lead-In and Lead-Out : No
Fill up missing offset samples with silence : Yes
Delete leading and trailing silent blocks : No
Null samples used in CRC calculations : Yes
Used interface : Installed external ASPI interface
Used output format : User Defined Encoder
Selected bitrate : 1024 kBit/s
Quality : High
Add ID3 tag : No
Command line compressor : C:\Program Files\Exact Audio Copy\FLAC\FLAC.EXE
Additional command line options : -8 -V -T "ARTIST=%a" -T "ALBUM=%g" -T "DATE=%y" -T "GENRE=%m" %s -o %d
TOC of the extracted CD
Track | Start | Length | Start sector | End sector
---------------------------------------------------------
1 | 0:00.00 | 6:43.00 | 0 | 30224
2 | 6:43.00 | 6:33.21 | 30225 | 59720
3 | 13:16.21 | 3:50.11 | 59721 | 76981
4 | 17:06.32 | 4:52.32 | 76982 | 98913
5 | 21:58.64 | 12:07.21 | 98914 | 153459
6 | 34:06.10 | 6:54.39 | 153460 | 184548
7 | 41:00.49 | 8:47.54 | 184549 | 224127
8 | 49:48.28 | 2:43.51 | 224128 | 236403
9 | 52:32.04 | 4:09.35 | 236404 | 255113
10 | 56:41.39 | 3:15.58 | 255114 | 269796
11 | 59:57.22 | 4:45.31 | 269797 | 291202
12 | 64:42.53 | 4:04.06 | 291203 | 309508
Range status and errors
Selected range
Filename J:\temp\nnm\Various - Afro-Rock Volume One.wav
Peak level 50.1 %
Range quality 100.0 %
Test CRC 3A78C9F9
Copy CRC 3A78C9F9
Copy OK
No errors occurred
AccurateRip summary
Track 1 accurately ripped (confidence 2) [2B45D866]
Track 2 accurately ripped (confidence 2) [1B1243B7]
Track 3 accurately ripped (confidence 2) [CE3CC78C]
Track 4 accurately ripped (confidence 2) [C29767B1]
Track 5 accurately ripped (confidence 2) [3B6D8CE5]
Track 6 accurately ripped (confidence 2) [DE908419]
Track 7 accurately ripped (confidence 2) [906D2863]
Track 8 accurately ripped (confidence 2) [3E274436]
Track 9 accurately ripped (confidence 2) [734BE93F]
Track 10 accurately ripped (confidence 2) [042389D6]
Track 11 accurately ripped (confidence 2) [02356BC2]
Track 12 accurately ripped (confidence 2) [B509CA38]
All tracks accurately ripped
End of status report
19:34
268
Нет комментариев. Ваш будет первым!