Поиск

(Afrobeat, Funk) T.P. Orchestre Poly-Rythmo - The Kings Of Benin Urban Groove 1972-80 - 2004, FLAC (image+.cue) lossless

(Afrobeat, Funk) T.P. Orchestre Poly-Rythmo - The Kings Of Benin Urban Groove 1972-80 - 2004, FLAC (image+.cue) lossless
T.P. Orchestre Poly-Rythmo / The Kings Of Benin Urban Groove 1972-80
Жанр: Afrobeat, Funk
Страна-производитель диска: Manufactured in the E.U.
Год издания диска: 2004
Издатель (лейбл): Soundway (UK)
Номер по каталогу: SNDWCD004
Аудио кодек: FLAC (*.flac)
Тип рипа: image+.cue
Битрейт аудио: lossless
Продолжительность: 1:09:53
Источник (релизер): cd
Наличие сканов в содержимом раздачи: нет
Треклист:
01 Aihe Ni Kpe We (7:12)
02 Les Djos (3:40)
03 Hwe Towe Hun (4:09)
04 Gendamou Na Wii We Gnannin (6:12)
05 Mi Si Ba To (5:02)
06 Avoun Doupou Me Douga (3:30)
07 Kokoriko (6:39)
08 Ne Te Faches Pa (10:10)
09 Kou Tche Kpo So O (3:15)
10 Gbeto Vivi (5:45)
11 Agnon Djidjo (7:52)
12 Medida (2:58)
13 Angelina II (3:30)
 
Лог создания рипа
Exact Audio Copy V0.99 prebeta 5 from 4. May 2009
EAC extraction logfile from 5. December 2010, 18:02
T.P. Orchestre Poly-Rythmo / The Kings Of Benin Urban Groove 1972 - 80
Used drive : PIONEER DVD-RW DVR-111 Adapter: 2 ID: 0
Read mode : Secure
Utilize accurate stream : Yes
Defeat audio cache : Yes
Make use of C2 pointers : No
Read offset correction : 48
Overread into Lead-In and Lead-Out : No
Fill up missing offset samples with silence : Yes
Delete leading and trailing silent blocks : No
Null samples used in CRC calculations : Yes
Used interface : Installed external ASPI interface
Used output format : User Defined Encoder
Selected bitrate : 1024 kBit/s
Quality : High
Add ID3 tag : No
Command line compressor : C:\Program Files\Exact Audio Copy\FLAC\FLAC.EXE
Additional command line options : -8 -V -T "ARTIST=%a" -T "ALBUM=%g" -T "DATE=%y" -T "GENRE=%m" %s -o %d
TOC of the extracted CD
Track | Start | Length | Start sector | End sector
---------------------------------------------------------
1 | 0:00.00 | 7:12.16 | 0 | 32415
2 | 7:12.16 | 3:40.16 | 32416 | 48931
3 | 10:52.32 | 4:08.57 | 48932 | 67588
4 | 15:01.14 | 6:12.26 | 67589 | 95514
5 | 21:13.40 | 5:01.53 | 95515 | 118142
6 | 26:15.18 | 3:29.55 | 118143 | 133872
7 | 29:44.73 | 6:38.70 | 133873 | 163792
8 | 36:23.68 | 10:10.28 | 163793 | 209570
9 | 46:34.21 | 3:14.49 | 209571 | 224169
10 | 49:48.70 | 5:45.35 | 224170 | 250079
11 | 55:34.30 | 7:51.46 | 250080 | 285450
12 | 63:26.01 | 2:57.59 | 285451 | 298784
13 | 66:23.60 | 3:29.50 | 298785 | 314509
Range status and errors
Selected range
Filename J:\temp\nnm\TP Orchestre Poly-Rythmo - The Kings Of Benin Urban Groove 1972-80.wav
Peak level 100.0 %
Range quality 100.0 %
Test CRC 58BDEB1D
Copy CRC 58BDEB1D
Copy OK
No errors occurred
AccurateRip summary
Track 1 cannot be verified as accurate (confidence 1) [234B60CB], AccurateRip returned [5EB8088D]
Track 2 cannot be verified as accurate (confidence 1) [A71F890F], AccurateRip returned [4488134B]
Track 3 cannot be verified as accurate (confidence 1) [057CC9CD], AccurateRip returned [E2A96F03]
Track 4 cannot be verified as accurate (confidence 1) [1966F430], AccurateRip returned [2BD639F2]
Track 5 cannot be verified as accurate (confidence 1) [2A02ADC0], AccurateRip returned [805399C3]
Track 6 cannot be verified as accurate (confidence 1) [E4E207B4], AccurateRip returned [DED6B328]
Track 7 cannot be verified as accurate (confidence 1) [28547ACA], AccurateRip returned [7FD7B244]
Track 8 cannot be verified as accurate (confidence 1) [34EA5E33], AccurateRip returned [141B4553]
Track 9 cannot be verified as accurate (confidence 1) [9DEABABB], AccurateRip returned [A364E973]
Track 10 cannot be verified as accurate (confidence 1) [EC2C204F], AccurateRip returned [C3649D40]
Track 11 cannot be verified as accurate (confidence 1) [3BE3DB75], AccurateRip returned [5C6D19F5]
Track 12 cannot be verified as accurate (confidence 1) [76FFF1C1], AccurateRip returned [B9F7F882]
Track 13 cannot be verified as accurate (confidence 1) [AB74C8FB], AccurateRip returned [E2D2ECF1]
No tracks could be verified as accurate
You may have a different pressing from the one(s) in the database
End of status report
19:34
259
Нет комментариев. Ваш будет первым!