Поиск

(Brazilian Jazz) [CD] Toots Thielemans - The Brasil Project 2cd - 1992-1993 FLAC(tracks+.cue) lossless

(Brazilian Jazz) [CD] Toots Thielemans - The Brasil Project 2cd - 1992-1993 FLAC(tracks+.cue) lossless
Toots Thielemans/ The Brasil Project 2cd
Жанр: Brazilian Jazz
Страна-производитель диска: USA
Год издания диска: 1992-1993
Издатель (лейбл): Privat Music
Номер по каталогу: 20198
Страна: USA
Аудио кодек: FLAC (*.flac)
Тип рипа: tracks+.cue, log
Битрейт аудио: lossless
Продолжительность: 56:44+52:30
Источник (релизер): BMG
Наличие сканов в содержимом раздачи: да
 
Треклист

 
Vol.1
01. Comecar De Novo 3:57
02. Obi 4:23
03. Felicia And Bianca 3:01
04. O Cantador 4:11
05. Joana Francesa 2:57
06. Coisa Feita 4:27
07. Preciso Aprender A So Ser 3:19
08. Fruta Boa 5:41
09. Coracao Vagabundo 4:29
10. Manha De Carnaval 3:29
11. Casa Forte 3:40
12. Moments 2:35
13. Bluesette 9:41
 
Vol.2
01. Ce 5:30
02. Choro Bandido 3:36
03. Retrato em Branco e Preto 3:19
04. Obsession 3:34
05. Travessia 3:09
06. Flora 4:25
07. Unconditional Love 5:18
08. Papel Mache 2:59
09. O Futebol 3;37
10. Linda (VocheE Linda) 3:48
11. Samba de Uma Nota So 3:22
12. Oceano 5:21
13. Samba de Orfeu 3:36
 
Лог создания рипа
 
Vol.1
Exact Audio Copy V1.0 beta 3 from 29. August 2011
EAC extraction logfile from 18. February 2015, 19:56
Toots Thielemans / The Brasil Project
Used drive : LITE-ON DVDRW LH-18A1H Adapter: 0 ID: 0
Read mode : Secure
Utilize accurate stream : Yes
Defeat audio cache : Yes
Make use of C2 pointers : No
Read offset correction : 6
Overread into Lead-In and Lead-Out : No
Fill up missing offset samples with silence : Yes
Delete leading and trailing silent blocks : No
Null samples used in CRC calculations : Yes
Used interface : Native Win32 interface for Win NT & 2000
Gap handling : Appended to previous track
Used output format : User Defined Encoder
Selected bitrate : 896 kBit/s
Quality : High
Add ID3 tag : Yes
Command line compressor : D:\Soft\Exact Audio Copy\Encoders\Flac\flac.exe
Additional command line options : -5 --delete-input-file -V %source% -o %dest%
TOC of the extracted CD
Track | Start | Length | Start sector | End sector
---------------------------------------------------------
1 | 0:00.00 | 3:57.10 | 0 | 17784
2 | 3:57.10 | 4:23.30 | 17785 | 37539
3 | 8:20.40 | 3:00.52 | 37540 | 51091
4 | 11:21.17 | 4:10.63 | 51092 | 69904
5 | 15:32.05 | 2:56.70 | 69905 | 83174
6 | 18:29.00 | 4:26.52 | 83175 | 103176
7 | 22:55.52 | 3:18.60 | 103177 | 118086
8 | 26:14.37 | 5:41.23 | 118087 | 143684
9 | 31:55.60 | 4:29.35 | 143685 | 163894
10 | 36:25.20 | 3:29.12 | 163895 | 179581
11 | 39:54.32 | 3:39.55 | 179582 | 196061
12 | 43:34.12 | 2:35.13 | 196062 | 207699
13 | 46:09.25 | 9:41.22 | 207700 | 251296
Track 1
Filename E:\Toots Thielemans - Brasil Project Vol.1\01. Comecar de Novo.wav
Pre-gap length 0:00:02.00
Peak level 57.2 %
Extraction speed 4.2 X
Track quality 100.0 %
Test CRC 4DCED21C
Copy CRC 4DCED21C
Accurately ripped (confidence 11) [2A27FCC0] (AR v2)
Copy OK
Track 2
Filename E:\Toots Thielemans - Brasil Project Vol.1\02. Obi.wav
Pre-gap length 0:00:02.90
Peak level 83.2 %
Extraction speed 4.7 X
Track quality 100.0 %
Test CRC AA961FA0
Copy CRC AA961FA0
Accurately ripped (confidence 11) [834540A6] (AR v2)
Copy OK
Track 3
Filename E:\Toots Thielemans - Brasil Project Vol.1\03. Felicia And Bianca.wav
Pre-gap length 0:00:00.73
Peak level 76.0 %
Extraction speed 4.7 X
Track quality 100.0 %
Test CRC 8F932EA3
Copy CRC 8F932EA3
Accurately ripped (confidence 11) [9973B53A] (AR v2)
Copy OK
Track 4
Filename E:\Toots Thielemans - Brasil Project Vol.1\04. O Cantador.wav
Pre-gap length 0:00:01.46
Peak level 59.7 %
Extraction speed 5.2 X
Track quality 100.0 %
Test CRC 41D5D3FE
Copy CRC 41D5D3FE
Accurately ripped (confidence 11) [76424A94] (AR v2)
Copy OK
Track 5
Filename E:\Toots Thielemans - Brasil Project Vol.1\05. Joanna Francesa.wav
Pre-gap length 0:00:01.40
Peak level 54.5 %
Extraction speed 4.1 X
Track quality 99.9 %
Test CRC E9D0F3F2
Copy CRC E9D0F3F2
Accurately ripped (confidence 11) [989309FE] (AR v2)
Copy OK
Track 6
Filename E:\Toots Thielemans - Brasil Project Vol.1\06. Coisa Feita.wav
Pre-gap length 0:00:00.50
Peak level 93.1 %
Extraction speed 5.8 X
Track quality 100.0 %
Test CRC 1D4192F2
Copy CRC 1D4192F2
Accurately ripped (confidence 11) [A7CB54DB] (AR v2)
Copy OK
Track 7
Filename E:\Toots Thielemans - Brasil Project Vol.1\07. Precisio Aprender a So Ser.wav
Pre-gap length 0:00:00.82
Peak level 78.5 %
Extraction speed 5.9 X
Track quality 100.0 %
Test CRC 89E1A50A
Copy CRC 89E1A50A
Accurately ripped (confidence 11) [F9EB0324] (AR v2)
Copy OK
Track 8
Filename E:\Toots Thielemans - Brasil Project Vol.1\08. Fruta Boa.wav
Pre-gap length 0:00:01.93
Peak level 58.5 %
Extraction speed 5.7 X
Track quality 99.9 %
Test CRC AA729686
Copy CRC AA729686
Accurately ripped (confidence 11) [75A94E05] (AR v2)
Copy OK
Track 9
Filename E:\Toots Thielemans - Brasil Project Vol.1\09. Coracao Vagabundo.wav
Pre-gap length 0:00:01.00
Peak level 58.9 %
Extraction speed 6.7 X
Track quality 100.0 %
Test CRC 6DCC9689
Copy CRC 6DCC9689
Accurately ripped (confidence 11) [119A4E2C] (AR v2)
Copy OK
Track 10
Filename E:\Toots Thielemans - Brasil Project Vol.1\10. Manha de Carnaval.wav
Pre-gap length 0:00:01.24
Peak level 76.4 %
Extraction speed 5.4 X
Track quality 99.9 %
Test CRC 87D12BEE
Copy CRC 87D12BEE
Accurately ripped (confidence 11) [8690766B] (AR v2)
Copy OK
Track 11
Filename E:\Toots Thielemans - Brasil Project Vol.1\11. Casa Fortes.wav
Pre-gap length 0:00:01.82
Peak level 100.0 %
Extraction speed 5.6 X
Track quality 99.9 %
Test CRC D7F0CC84
Copy CRC D7F0CC84
Accurately ripped (confidence 11) [299573F0] (AR v2)
Copy OK
Track 12
Filename E:\Toots Thielemans - Brasil Project Vol.1\12. Moments.wav
Pre-gap length 0:00:02.42
Peak level 51.7 %
Extraction speed 6.7 X
Track quality 100.0 %
Test CRC A81E0BBF
Copy CRC A81E0BBF
Accurately ripped (confidence 11) [AB933371] (AR v2)
Copy OK
Track 13
Filename E:\Toots Thielemans - Brasil Project Vol.1\13. Bluesette.wav
Pre-gap length 0:00:01.37
Peak level 100.0 %
Extraction speed 8.1 X
Track quality 100.0 %
Test CRC 5BBDAAE2
Copy CRC 5BBDAAE2
Accurately ripped (confidence 11) [BD253606] (AR v2)
Copy OK
All tracks accurately ripped
No errors occurred
End of status report
==== Log checksum CC6859C04F4BB192377DAE91522370D99F7124D89DD1A26161969DCB2C362A50 ====
 
Vol.2
Exact Audio Copy V1.0 beta 3 from 29. August 2011
EAC extraction logfile from 18. February 2015, 17:28
Toots Thielemans / Brasil Project Vol. 2
Used drive : LITE-ON DVDRW LH-18A1H Adapter: 0 ID: 0
Read mode : Secure
Utilize accurate stream : Yes
Defeat audio cache : Yes
Make use of C2 pointers : No
Read offset correction : 6
Overread into Lead-In and Lead-Out : No
Fill up missing offset samples with silence : Yes
Delete leading and trailing silent blocks : No
Null samples used in CRC calculations : Yes
Used interface : Native Win32 interface for Win NT & 2000
Gap handling : Appended to previous track
Used output format : User Defined Encoder
Selected bitrate : 896 kBit/s
Quality : High
Add ID3 tag : Yes
Command line compressor : D:\Soft\Exact Audio Copy\Encoders\Flac\flac.exe
Additional command line options : -5 --delete-input-file -V %source% -o %dest%
TOC of the extracted CD
Track | Start | Length | Start sector | End sector
---------------------------------------------------------
1 | 0:00.00 | 5:30.05 | 0 | 24754
2 | 5:30.05 | 3:36.12 | 24755 | 40966
3 | 9:06.17 | 3:19.28 | 40967 | 55919
4 | 12:25.45 | 3:34.42 | 55920 | 72011
5 | 16:00.12 | 3:08.63 | 72012 | 86174
6 | 19:09.00 | 4:25.25 | 86175 | 106074
7 | 23:34.25 | 5:17.65 | 106075 | 129914
8 | 28:52.15 | 2:59.40 | 129915 | 143379
9 | 31:51.55 | 3:36.65 | 143380 | 159644
10 | 35:28.45 | 3:48.35 | 159645 | 176779
11 | 39:17.05 | 3:22.05 | 176780 | 191934
12 | 42:39.10 | 5:21.00 | 191935 | 216009
13 | 48:00.10 | 3:36.27 | 216010 | 232236
Track 1
Filename E:\Toots Thielemans - Brasil Project Vol.2\01.Ce.wav
Pre-gap length 0:00:02.00
Peak level 89.9 %
Extraction speed 4.5 X
Track quality 100.0 %
Test CRC 65D3EF9D
Copy CRC 65D3EF9D
Accurately ripped (confidence 11) [56F9872C] (AR v2)
Copy OK
Track 2
Filename E:\Toots Thielemans - Brasil Project Vol.2\02.Choro Bandido.wav
Pre-gap length 0:00:02.76
Peak level 47.6 %
Extraction speed 4.7 X
Track quality 100.0 %
Test CRC 2C86D9C2
Copy CRC 2C86D9C2
Accurately ripped (confidence 11) [A7549B23] (AR v2)
Copy OK
Track 3
Filename E:\Toots Thielemans - Brasil Project Vol.2\03.Retrato em Branco e Preto.wav
Pre-gap length 0:00:02.69
Peak level 57.6 %
Extraction speed 4.9 X
Track quality 100.0 %
Test CRC 9A131778
Copy CRC 9A131778
Accurately ripped (confidence 11) [E20D3BC1] (AR v2)
Copy OK
Track 4
Filename E:\Toots Thielemans - Brasil Project Vol.2\04.Obsession.wav
Pre-gap length 0:00:03.02
Peak level 81.1 %
Extraction speed 5.2 X
Track quality 100.0 %
Test CRC 5A58F752
Copy CRC 5A58F752
Accurately ripped (confidence 11) [86FE8BDF] (AR v2)
Copy OK
Track 5
Filename E:\Toots Thielemans - Brasil Project Vol.2\05.Travessia.wav
Pre-gap length 0:00:03.56
Peak level 96.8 %
Extraction speed 5.3 X
Track quality 100.0 %
Test CRC EB2766BC
Copy CRC EB2766BC
Accurately ripped (confidence 11) [F10C9915] (AR v2)
Copy OK
Track 6
Filename E:\Toots Thielemans - Brasil Project Vol.2\06.Flora.wav
Pre-gap length 0:00:03.89
Peak level 88.3 %
Extraction speed 5.9 X
Track quality 100.0 %
Test CRC E90FC6E6
Copy CRC E90FC6E6
Accurately ripped (confidence 11) [5C75B2A5] (AR v2)
Copy OK
Track 7
Filename E:\Toots Thielemans - Brasil Project Vol.2\07.Unconditional Love.wav
Pre-gap length 0:00:04.29
Peak level 93.1 %
Extraction speed 6.3 X
Track quality 100.0 %
Test CRC DC5FFFCA
Copy CRC DC5FFFCA
Accurately ripped (confidence 11) [C359A0DD] (AR v2)
Copy OK
Track 8
Filename E:\Toots Thielemans - Brasil Project Vol.2\08.Papel Mache.wav
Pre-gap length 0:00:01.49
Peak level 78.2 %
Extraction speed 6.1 X
Track quality 100.0 %
Test CRC 7E7D1D7A
Copy CRC 7E7D1D7A
Accurately ripped (confidence 11) [78F76413] (AR v2)
Copy OK
Track 9
Filename E:\Toots Thielemans - Brasil Project Vol.2\09.O Futebol.wav
Pre-gap length 0:00:04.42
Peak level 75.4 %
Extraction speed 6.5 X
Track quality 100.0 %
Test CRC D147A851
Copy CRC D147A851
Accurately ripped (confidence 11) [C131237C] (AR v2)
Copy OK
Track 10
Filename E:\Toots Thielemans - Brasil Project Vol.2\10.Linda.wav
Pre-gap length 0:00:04.76
Peak level 57.7 %
Extraction speed 6.8 X
Track quality 100.0 %
Test CRC 729F8BC7
Copy CRC 729F8BC7
Accurately ripped (confidence 11) [B50304DD] (AR v2)
Copy OK
Track 11
Filename E:\Toots Thielemans - Brasil Project Vol.2\11.Samba de Uma Nota So.wav
Pre-gap length 0:00:03.60
Peak level 100.0 %
Extraction speed 6.8 X
Track quality 100.0 %
Test CRC 169CBC97
Copy CRC 169CBC97
Accurately ripped (confidence 11) [6D585D6E] (AR v2)
Copy OK
Track 12
Filename E:\Toots Thielemans - Brasil Project Vol.2\12.Oceano.wav
Pre-gap length 0:00:03.26
Peak level 84.4 %
Extraction speed 6.4 X
Track quality 99.9 %
Test CRC 1519DAA6
Copy CRC 1519DAA6
Accurately ripped (confidence 11) [3585A79C] (AR v2)
Copy OK
Track 13
Filename E:\Toots Thielemans - Brasil Project Vol.2\13.Samba de Orfeu.wav
Pre-gap length 0:00:05.68
Peak level 87.4 %
Extraction speed 7.3 X
Track quality 100.0 %
Test CRC E2579BCF
Copy CRC E2579BCF
Accurately ripped (confidence 11) [D6DB2E6F] (AR v2)
Copy OK
All tracks accurately ripped
No errors occurred
End of status report
==== Log checksum BF7A3F3BC597DB8C4B60371DBE27A38C8A2EE995C313CA6591AB4602370E2EBB ====
 
Содержание индексной карты (.CUE)
 
Vol.1
REM GENRE Latin
REM DATE 1992
REM DISCID B90D160D
REM COMMENT "ExactAudioCopy v1.0b3"
PERFORMER "Toots Thielemans"
TITLE "The Brasil Project"
FILE "01. Comecar de Novo.wav" WAVE
TRACK 01 AUDIO
TITLE "Comecar de Novo"
PERFORMER "Toots Thielemans"
INDEX 01 00:00:00
TRACK 02 AUDIO
TITLE "Obi"
PERFORMER "Toots Thielemans"
INDEX 00 03:54:17
FILE "02. Obi.wav" WAVE
INDEX 01 00:00:00
TRACK 03 AUDIO
TITLE "Felicia And Bianca"
PERFORMER "Toots Thielemans"
INDEX 00 04:22:50
FILE "03. Felicia And Bianca.wav" WAVE
INDEX 01 00:00:00
TRACK 04 AUDIO
TITLE "O Cantador"
PERFORMER "Toots Thielemans"
INDEX 00 02:59:17
FILE "04. O Cantador.wav" WAVE
INDEX 01 00:00:00
TRACK 05 AUDIO
TITLE "Joanna Francesa"
PERFORMER "Toots Thielemans"
INDEX 00 04:09:33
FILE "05. Joanna Francesa.wav" WAVE
INDEX 01 00:00:00
TRACK 06 AUDIO
TITLE "Coisa Feita"
PERFORMER "Toots Thielemans"
INDEX 00 02:56:32
FILE "06. Coisa Feita.wav" WAVE
INDEX 01 00:00:00
TRACK 07 AUDIO
TITLE "Precisio Aprender a So Ser"
PERFORMER "Toots Thielemans"
INDEX 00 04:25:65
FILE "07. Precisio Aprender a So Ser.wav" WAVE
INDEX 01 00:00:00
TRACK 08 AUDIO
TITLE "Fruta Boa"
PERFORMER "Toots Thielemans"
INDEX 00 03:16:65
FILE "08. Fruta Boa.wav" WAVE
INDEX 01 00:00:00
TRACK 09 AUDIO
TITLE "Coracao Vagabundo"
PERFORMER "Toots Thielemans"
INDEX 00 05:40:23
FILE "09. Coracao Vagabundo.wav" WAVE
INDEX 01 00:00:00
TRACK 10 AUDIO
TITLE "Manha de Carnaval"
PERFORMER "Toots Thielemans"
INDEX 00 04:28:17
FILE "10. Manha de Carnaval.wav" WAVE
INDEX 01 00:00:00
TRACK 11 AUDIO
TITLE "Casa Fortes"
PERFORMER "Toots Thielemans"
INDEX 00 03:27:25
FILE "11. Casa Fortes.wav" WAVE
INDEX 01 00:00:00
TRACK 12 AUDIO
TITLE "Moments"
PERFORMER "Toots Thielemans"
INDEX 00 03:37:23
FILE "12. Moments.wav" WAVE
INDEX 01 00:00:00
TRACK 13 AUDIO
TITLE "Bluesette"
PERFORMER "Toots Thielemans"
INDEX 00 02:33:60
FILE "13. Bluesette.wav" WAVE
INDEX 01 00:00:00
 
Vol.2
REM GENRE Latino
REM DATE 1993
REM DISCID AA0C180D
REM COMMENT "ExactAudioCopy v1.0b3"
PERFORMER "Toots Thielemans"
TITLE "Brasil Project 2"
FILE "01.Ce.wav" WAVE
TRACK 01 AUDIO
TITLE "Ce"
PERFORMER "Toots Thielemans"
INDEX 01 00:00:00
TRACK 02 AUDIO
TITLE "Choro Bandido"
PERFORMER "Toots Thielemans"
INDEX 00 05:27:23
FILE "02.Choro Bandido.wav" WAVE
INDEX 01 00:00:00
TRACK 03 AUDIO
TITLE "Retrato em Branco e Preto"
PERFORMER "Toots Thielemans"
INDEX 00 03:33:35
FILE "03.Retrato em Branco e Preto.wav" WAVE
INDEX 01 00:00:00
TRACK 04 AUDIO
TITLE "Obsession"
PERFORMER "Toots Thielemans"
INDEX 00 03:16:26
FILE "04.Obsession.wav" WAVE
INDEX 01 00:00:00
TRACK 05 AUDIO
TITLE "Travessia"
PERFORMER "Toots Thielemans"
INDEX 00 03:31:00
FILE "05.Travessia.wav" WAVE
INDEX 01 00:00:00
TRACK 06 AUDIO
TITLE "Flora"
PERFORMER "Toots Thielemans"
INDEX 00 03:04:71
FILE "06.Flora.wav" WAVE
INDEX 01 00:00:00
TRACK 07 AUDIO
TITLE "Unconditional Love"
PERFORMER "Toots Thielemans"
INDEX 00 04:21:03
FILE "07.Unconditional Love.wav" WAVE
INDEX 01 00:00:00
TRACK 08 AUDIO
TITLE "Papel Mache"
PERFORMER "Toots Thielemans"
INDEX 00 05:16:28
FILE "08.Papel Mache.wav" WAVE
INDEX 01 00:00:00
TRACK 09 AUDIO
TITLE "O Futebol"
PERFORMER "Toots Thielemans"
INDEX 00 02:55:08
FILE "09.O Futebol.wav" WAVE
INDEX 01 00:00:00
TRACK 10 AUDIO
TITLE "Linda"
PERFORMER "Toots Thielemans"
INDEX 00 03:32:08
FILE "10.Linda.wav" WAVE
INDEX 01 00:00:00
TRACK 11 AUDIO
TITLE "Samba de Uma Nota So"
PERFORMER "Toots Thielemans"
INDEX 00 03:44:65
FILE "11.Samba de Uma Nota So.wav" WAVE
INDEX 01 00:00:00
TRACK 12 AUDIO
TITLE "Oceano"
PERFORMER "Toots Thielemans"
INDEX 00 03:18:60
FILE "12.Oceano.wav" WAVE
INDEX 01 00:00:00
TRACK 13 AUDIO
TITLE "Samba de Orfeu"
PERFORMER "Toots Thielemans"
INDEX 00 05:15:24
FILE "13.Samba de Orfeu.wav" WAVE
INDEX 01 00:00:00
 
auCDtectTask
 
Vol.1
-----------------------
DON'T MODIFY THIS FILE
-----------------------
PERFORMER: auCDtect Task Manager, ver. 1.0.1 RC1 build 1.0.1.1
Copyright (c) 2008, 2009 y-soft. All rights reserved
http://y-soft.110mb.com
ANALYZER: auCDtect: CD records authenticity detector, version 0.8.2
Copyright (c) 2004 Oleg Berngardt. All rights reserved.
Copyright (c) 2004 Alexander Djourik. All rights reserved.
FILE: 02. Obi.flac
Size: 24841839 Hash: 90108857073786AD2DB87BA213A6FB25 Accuracy: -m0
Conclusion: CDDA 100%
Signature: 2AD55570F46161F9216CA80C69FDA939DD2431BA
FILE: 01. Comecar de Novo.flac
Size: 18964935 Hash: 55D0676A247EA6CFFC14D0CFBC2B3C15 Accuracy: -m0
Conclusion: CDDA 100%
Signature: 076B641777D83DAE42EADFC919AE82DD0BC3CDCA
FILE: 03. Felicia And Bianca.flac
Size: 16530617 Hash: 7F0270EF8117BB5D744C6470173F8EFC Accuracy: -m0
Conclusion: CDDA 100%
Signature: 0B984B88F2B2B187E475A6C112816EE823ADDA5A
FILE: 04. O Cantador.flac
Size: 18703296 Hash: 29FC3A8A34C46E0C15822FF76EDC5C57 Accuracy: -m0
Conclusion: CDDA 100%
Signature: D498743F27C2624EDA1C233F3261D5F7E81CA55D
FILE: 05. Joanna Francesa.flac
Size: 13944837 Hash: 1519D8C090D83A789745F290D146EA87 Accuracy: -m0
Conclusion: CDDA 100%
Signature: 23A1EF082D446C2271B6D7D5EFF378AC7941461D
FILE: 06. Coisa Feita.flac
Size: 21742473 Hash: F9064E5FE37456E112B73CDFA17FB83A Accuracy: -m0
Conclusion: CDDA 100%
Signature: 9514606B71040C5EEF47A55603D473916A727A50
FILE: 07. Precisio Aprender a So Ser.flac
Size: 17590054 Hash: 6D4E701AA31B5E16089192DB94A2DB7F Accuracy: -m0
Conclusion: CDDA 100%
Signature: B4640F10AFC64E734F665B08DAC06C64E9E64801
FILE: 08. Fruta Boa.flac
Size: 28063871 Hash: 3F891C76C4E43D41C891BC5AC80B55E4 Accuracy: -m0
Conclusion: CDDA 100%
Signature: 5CDFD5AB18EC38249A1073D4A876B5124B456D2B
FILE: 09. Coracao Vagabundo.flac
Size: 20451185 Hash: 3D16087FA02AFCF5900A8603D2AC8496 Accuracy: -m0
Conclusion: CDDA 99%
Signature: BC53C6896ECF866034D673DA9DDA8BDA5A541548
FILE: 10. Manha de Carnaval.flac
Size: 20960478 Hash: 75CEF0DE17FE72DFBAEF37C1FB6A5EE9 Accuracy: -m0
Conclusion: CDDA 100%
Signature: E5AA7CD55FE9FE6DFB077DFC9CE7F20D1652D792
FILE: 11. Casa Fortes.flac
Size: 24432840 Hash: 52EE0AC117736749D50D85DCC6F05705 Accuracy: -m0
Conclusion: CDDA 100%
Signature: FD1551B8B427D1ECE7B71DC47C2C141A5928ADFD
FILE: 12. Moments.flac
Size: 10967616 Hash: ED1DA3E76C800021083AEF23181E22EA Accuracy: -m0
Conclusion: CDDA 100%
Signature: 9762E7826A0C51AAE87959C2AD83815713B51DE6
FILE: 13. Bluesette.flac
Size: 50795459 Hash: A87C1C3C0B09D43D4C837B1F3A02C8AB Accuracy: -m0
Conclusion: CDDA 100%
Signature: 6B461C06956167313EDB4E1129A5C8E6B4D0E418
 
Vol.2
-----------------------
DON'T MODIFY THIS FILE
-----------------------
PERFORMER: auCDtect Task Manager, ver. 1.0.1 RC1 build 1.0.1.1
Copyright (c) 2008, 2009 y-soft. All rights reserved
http://y-soft.110mb.com
ANALYZER: auCDtect: CD records authenticity detector, version 0.8.2
Copyright (c) 2004 Oleg Berngardt. All rights reserved.
Copyright (c) 2004 Alexander Djourik. All rights reserved.
FILE: 02. Choro Bandido.flac
Size: 16505560 Hash: 4B31DD9DA13868521B52B295FD2600F6 Accuracy: -m0
Conclusion: CDDA 100%
Signature: 0664A2F9198991EB368403F33E4F4CCCE5686AE0
FILE: 01. Ce.flac
Size: 29851007 Hash: 7DA612FE3BB8518546ECF8AF247D2F17 Accuracy: -m0
Conclusion: CDDA 100%
Signature: BEDB17DBFDEC99932DFDC25ACC4DC814049E76B0
FILE: 03. Retrato em Branco e Preto.flac
Size: 14797373 Hash: E9919C92F2AE5587101BAEFF66D164FF Accuracy: -m0
Conclusion: CDDA 100%
Signature: C418859548B6BC51661D83DBEC92122832E4871E
FILE: 04. Obsession.flac
Size: 20485032 Hash: CA23F7D930BF64AD67DD4FA1974669AA Accuracy: -m0
Conclusion: CDDA 100%
Signature: 9E0CC502EB8CA8BCD0422CC101BEE95F1EF35D78
FILE: 05. Travessia.flac
Size: 17753638 Hash: C5EFDA06112B6031A1C46D264A760A81 Accuracy: -m0
Conclusion: CDDA 100%
Signature: 7BEB9527B03988A72E8001C337A4A1C5083B9DDF
FILE: 06. Flora.flac
Size: 26385799 Hash: 98C79C22E8072EA302EDE8FD36438540 Accuracy: -m0
Conclusion: CDDA 100%
Signature: 6C17A5422E36D2DDC6E22F29E28F72D58F1B3093
FILE: 07. Unconditional Love.flac
Size: 24907944 Hash: A0454CDEF278B338E961EC5E9FD0B965 Accuracy: -m0
Conclusion: CDDA 100%
Signature: FCB22B62878BF69B4314A6F7E51481A7C48E959B
FILE: 08. Papel Mache.flac
Size: 15419602 Hash: C1994D3CFEF377BCF76CA204665884CE Accuracy: -m0
Conclusion: CDDA 100%
Signature: 5F2BDA45B9B673F838B453C5372F2A30C4A0EFFC
FILE: 09. O Futebol.flac
Size: 17294484 Hash: B4E8C517489DF1BE024141807D31736A Accuracy: -m0
Conclusion: CDDA 100%
Signature: 99F66807AC10CE26CC66658F807245A57EDE0A04
FILE: 10. Linda (VocheE Linda).flac
Size: 19057147 Hash: 1466EB983477DADA7E0E3562E23042C3 Accuracy: -m0
Conclusion: CDDA 100%
Signature: A5CE950836C54002A2834127D45D929EF6A54801
FILE: 11. Samba de Uma Nota So.flac
Size: 14999306 Hash: B353C4E13BC98DE2DF1B3595491CB92A Accuracy: -m0
Conclusion: CDDA 100%
Signature: 96B2560B06CB28BA51645966B02D0E9C04F5ED09
FILE: 13. Samba de Orfeu.flac
Size: 18685289 Hash: A6F364DB7194A45BC9E9AC8243AB9719 Accuracy: -m0
Conclusion: CDDA 100%
Signature: 2132E85D371CAE8D4D5DFFBA08FEBB6A12AFBDFB
FILE: 12. Oceano.flac
Size: 26138764 Hash: FE7A5E2FAC87009A154431994BD2F1AC Accuracy: -m0
Conclusion: CDDA 100%
Signature: 9F91F356FE27A1D82700A3E21807852A1D32474D
 
Об исполнителе (группе)
Полное имя-Жан-Батист Фредерик Исидор Тильманс
Дата рождения-29 апреля 1922 (88 лет)
Место рождения-Брюссель, Бельгия
Страна-США
Профессии-губная гармоника
гитара
художественный свист
Жанры-джаз
Барон Жан-Батист Фредерик Исидор Тильманс
(род. 29 апр. 1922 г., Брюссель, Бельгия)
по прозвищу Тутс — бельгийский джазовый музыкант,
гитарист, известный своими игрой на губной гармонике
и художественным свистом. Считается одним из крупнейших
мастеров игры на губной гармонике XX века.
Творческий путь
Тильманс начинал как гитарист. В 1949 г. в Париже он принял участие в джем-сешне вместе с Сидни Беше, Чарли Паркером, Майлзом Дэвисом, Максом Роучем. В 1949 и 1950 годах он участвовал в европейских турне Бенни Гудмена, осуществив в Париже свою первую запись вместе с товарищем по оркестру, саксофонистом Зутом Симсом. В 1951 г. ездил в турне с бельгийским артистом Боббеяном Схупеном.
В 1952 г. Тильманс переехал в Соединённые Штаты, где работал с Чарли Паркером, Майлзом Дэвисом и Диной Уошингтон. Он играл и записывался с музыкантами такого разряда, как Элла Фицджеральд, Джако Пасториус, Пегги Ли, квинтет Джорджа Ширинга, Куинси Джонс, Оскар Питерсон, Билл Эванс, Пол Саймон, Билли Джоэл, «Хэппенингс», Аструд Жилберту, Шерли Хорн, Элис Режина и другие.
Тутс Тильманс — автор джазового стандарта «Блюзетт», где он использовал унисонное звучание свиста и гитары. Впервые записанная Тутсом в 1962 г. с текстом Нормана Гимбела, песня снискала крупный успех сразу нескольким певцам по всему миру, и впоследствии была многократно перезаписана и переиздана автором в различных студийных и концертных исполнениях. Фирменную игру Тутса также можно услышать в музыке к фильмам Полуночный ковбой, Жан де Флоретт, Шугарлендский экспресс, Якудза, Турецкие наслаждения, Побег, Французский поцелуй, Dunderklumpen (также озвучание одного из персонажей), Том и Томас, а также во многих телепрограммах, напр., «Улица Сезам». Его свист и гармошку можно услышать в рекламных роликах «Олд спайс», идущих в эфир многие годы.
В восьмидесятых годах Тильманс выступал с бас-гитаристом, композитором и лидером группы Джако Пасториусом в различных составах от дуэта до «мини-биг-бэнда» на альбоме «Word of Mouth». В 1983 г. участвовал в записи альбома Билли Джоэла «An Innocent Man»; его фирменная гармошка звучит в песне «Leave a Tender Moment Alone». Годом спустя, он появился на записи Джулиана Леннона «Too Late for Goodbyes» с альбома «Valotte». И «An Innocent Man», и «Valotte» были спродюсированы Филом Рамоне. В 1984 г. он записался для альбома Билли Экстейна «I Am a Singer». В девяностых Тильманс вступал в проекты, связанные с этнической музыкой. В 1998 г. он выпустил альбом во французской эстетике под названием «Chez Toots» (игра слов: фр. «chez tous» звучит идентично), включивший франкоязычную версию «The Windmills of Your Mind» в исполнении приглашённого вокалиста Джонни Матиса. Этот диск по-прежнему хорошо продаётся.
 
Неполная дискография
Наиболее значительные работы:
The Sound (1955, Columbia)
Man Bites Harmonica (1958, Riverside)
Only Trust Your Heart (1988, Concord)
Footprints (1991, Universal)
The Brasil Project (1992, BMG)
The Brasil Project vol 2. (1993, BMG)
Compact Jazz (1993, Verve)
East Coast, West Coast (1994, Private)
Aquarela do Brasil (1995, Universal)
Chez Toots (1998, Windham Hill)
The Live Takes, volume 1 (2000, Quetzal)
Hard to Say Goodbye, the very best of Toots Thielemans (2000, Universal)
Toots Thielemans & Kenny Werner (2001, Universal)
One More for the Road (2006, Verve)
Оскар Питерсон - Live at the North Sea Jazz Festival, 1980, (1980, Pablo)
Помимо известности в качестве состоявшегося музыканта, он любим за свою скромность и лёгкость в поведении. В родной Бельгии он также известен тем, что называет себя «уличным парнем» на старобрюссельском сленге. Он получил единую почётную докторскую степень обоих Брюссельских свободных университетов, а в 2001 г. возведён в бароны королём Альбертом II. В 2005 г. был номинирован на звание величайшего бельгийца в соответствующем телешоу. Во фландрийской версии он занял двадцатое, а в валлонской — сорок четвёртое место. В октябре 2008 г. удостоен высшей джазовой награды США — «Джаз мастер» агентства NEA. 23 января 2009 г. выступил с Филипом Катрином на праздновании столетия со дня рождения Джанго Рейнхардта.
Влияние в исусстве
Тильманс, должно быть, оказал значительное воздействие на «Битлз» (в частности, на Джона Леннона) во время безвестного периода становления группы. В 1959 г. Леннон, выступая в немецком Гамбурге в составе ещё никому не известных «Битлз», порой заходил в клуб (иногда с Харрисоном «на буксире»), в котором выступал Тутс в составе квинтета Джорджа Ширинга. Леннон, безусловно, был очарован игрой Тутса, а также его гитарными предпочтениями: Тутс играл на американском короткомензурном «Рикенбэкере».
Основываясь на услышанном, Леннон принял решение приобрести ольховый цвета «элдергло» «Рик 325 Капри» о трёх звучках и с коротким грифом, о чём Джордж Харрисон расскажет через многие годы. Эта знаменитая гитара, произведя культ, превратилась в своего рода «Святой Грааль» всех гитар. Леннон многократно вносил в неё доработки, включая перекраску в чёрный цвет «джетгло» в сентябре 1962 г., однако это именно та гитара, на которой он в 1964 г. играл в составе «Битлз» на судьбоносных первом и третьем выступлениях в шоу Эда Салливана. Существует даже снимок, на котором Тильманс запечатлён на выставке «Рикенбэкер» с той самой гитарой, которая впоследствии будет принадлежать Леннону.
 
Состав
Personnel includes:
Toots Thielemans (harmonica);
Edu Lobo, Milton Nascimento (vocals);
John Clark (French horn, hornette);
Mark Isham (trumpet)
Eliane Elias (piano)
Mike Lang, Dave Grusin (keyboards)
Gilson Peranzzetta, Ivan Lins (keyboards)
Ivan Lins (keyboards, vocals)
Joao Bosco, Djavan, Dori Caymmi (guitar, vocals)
Lee Ritenour, Oscar Castro-Neves, Luis Bonfa (guitar)
Eugene Friesen (cello)
Luiz Bonfa, Dori Caymmi, Gilberto Gil, Caetano Veloso, Joao Bosco, Capinan (violao)
Brian Bromberg, Marc Johnson, Jamil Joanes (bass)
Steve Schaeffer, Teo Lima (drums)
Cassio Duarte, Bira Hawal, Paulinho Da Costa (percussion)
 
TripleFlac
19:35
464
Нет комментариев. Ваш будет первым!