Вы используете незарегистрированную версию компонента "Вкладки"!

Поиск

(Jazz Rock, Fusion) [CD] The Wrong Object - After The Exhibition - 2013, FLAC (image+.cue), lossless

(Jazz Rock, Fusion) [CD] The Wrong Object - After The Exhibition - 2013, FLAC (image+.cue), lossless
Треклист:
The Wrong Object - After The Exhibition
Жанр: Jazz Rock, Fusion
Год издания диска: 2013
Страна: Belgium
Аудиокодек: FLAC (*.flac)
Тип рипа: image+.cue
Битрейт аудио: lossless
Продолжительность: 00:59:43
Источник (релизер): Sket4er
Наличие сканов в содержимом раздачи:
Треклист:
01. Detox Gruel 04:14
02. Spanish Fly 05:20
03. Yantra 08:03
04. Frank Nuts 03:39
05. Jungle Cow, Part 1 05:41
06. Jungle Cow, Part 2 04:19
07. Jungle Cow, Part 3 05:24
08. Glass Cubes 08:29
09. Wrong But Not False 05:25
10. Flashlight Into Black Hole 03:05
11. Stammtisch 05:58
 
Лог создания рипа
Exact Audio Copy V1.0 beta 3 from 29. August 2011
EAC extraction logfile from 23. March 2014, 19:55
The Wrong Object / After The Exhibition
Used drive : Optiarc DVD+-RW AD-7717H Adapter: 0 ID: 0
Read mode : Secure
Utilize accurate stream : Yes
Defeat audio cache : Yes
Make use of C2 pointers : No
Read offset correction : 48
Overread into Lead-In and Lead-Out : No
Fill up missing offset samples with silence : Yes
Delete leading and trailing silent blocks : No
Null samples used in CRC calculations : Yes
Used interface : Installed external ASPI interface
Used output format : User Defined Encoder
Selected bitrate : 768 kBit/s
Quality : High
Add ID3 tag : No
Command line compressor : C:\Program Files (x86)\Exact Audio Copy\Flac\flac.exe
Additional command line options : -V -8 -T "Date=%year%" -T "Genre=%genre%" %source%
TOC of the extracted CD
Track | Start | Length | Start sector | End sector
---------------------------------------------------------
1 | 0:00.00 | 4:14.32 | 0 | 19081
2 | 4:14.32 | 5:20.64 | 19082 | 43145
3 | 9:35.21 | 8:03.64 | 43146 | 79434
4 | 17:39.10 | 3:39.30 | 79435 | 95889
5 | 21:18.40 | 5:41.30 | 95890 | 121494
6 | 26:59.70 | 4:19.43 | 121495 | 140962
7 | 31:19.38 | 5:24.34 | 140963 | 165296
8 | 36:43.72 | 8:29.58 | 165297 | 203529
9 | 45:13.55 | 5:25.25 | 203530 | 227929
10 | 50:39.05 | 3:05.60 | 227930 | 241864
11 | 53:44.65 | 5:58.73 | 241865 | 268787
Range status and errors
Selected range
Filename C:\0\Sket4er\The Wrong Object - After The Exhibition 2013 [flac]\The Wrong Object - After The Exhibition.wav
Peak level 98.8 %
Extraction speed 5.0 X
Range quality 100.0 %
Test CRC A1D21B67
Copy CRC A1D21B67
Copy OK
No errors occurred
AccurateRip summary
Track 1 cannot be verified as accurate (confidence 2) [7E20BDF9], AccurateRip returned [AE04EE48] (AR v2)
Track 2 cannot be verified as accurate (confidence 2) [64013561], AccurateRip returned [873FB096] (AR v2)
Track 3 cannot be verified as accurate (confidence 2) [55C87A13], AccurateRip returned [36C0E0EB] (AR v2)
Track 4 cannot be verified as accurate (confidence 2) [C9490CDE], AccurateRip returned [AF66FBAE] (AR v2)
Track 5 cannot be verified as accurate (confidence 2) [46BFAB1B], AccurateRip returned [78EEB4F6] (AR v2)
Track 6 cannot be verified as accurate (confidence 2) [FE3258BC], AccurateRip returned [5BE8F178] (AR v2)
Track 7 cannot be verified as accurate (confidence 2) [68E54BAC], AccurateRip returned [23C18AA6] (AR v2)
Track 8 cannot be verified as accurate (confidence 2) [D162D4FA], AccurateRip returned [05C0AB9D] (AR v2)
Track 9 cannot be verified as accurate (confidence 2) [4F72EA93], AccurateRip returned [1B616C80] (AR v2)
Track 10 cannot be verified as accurate (confidence 2) [451A9B64], AccurateRip returned [68347B54] (AR v2)
Track 11 cannot be verified as accurate (confidence 2) [2DBA780A], AccurateRip returned [A68B49EC] (AR v2)
No tracks could be verified as accurate
You may have a different pressing from the one(s) in the database
End of status report
==== Log checksum 3AE403EC82B9AD7FB79DFDDE192374BA9CFFD2FF62F2AAD6BBDBB74E68BF019F ====
 
Содержание индексной карты (.CUE)
REM GENRE Fusion
REM DATE 2013
REM DISCID 7E0DFF0B
REM COMMENT "ExactAudioCopy v1.0b3"
PERFORMER "The Wrong Object"
TITLE "After The Exhibition"
FILE "The Wrong Object - After The Exhibition.flac" WAVE
TRACK 01 AUDIO
TITLE "Detox Gruel"
PERFORMER "The Wrong Object"
INDEX 01 00:00:00
TRACK 02 AUDIO
TITLE "Spanish Fly"
PERFORMER "The Wrong Object"
INDEX 01 04:14:32
TRACK 03 AUDIO
TITLE "Yantra"
PERFORMER "The Wrong Object"
INDEX 01 09:35:21
TRACK 04 AUDIO
TITLE "Frank Nuts"
PERFORMER "The Wrong Object"
INDEX 01 17:39:10
TRACK 05 AUDIO
TITLE "Jungle Cow Part I"
PERFORMER "The Wrong Object"
INDEX 01 21:18:40
TRACK 06 AUDIO
TITLE "Jungle Cow Part II"
PERFORMER "The Wrong Object"
INDEX 01 26:59:70
TRACK 07 AUDIO
TITLE "Jungle Cow Part III"
PERFORMER "The Wrong Object"
INDEX 01 31:19:38
TRACK 08 AUDIO
TITLE "Glass Cubes"
PERFORMER "The Wrong Object"
INDEX 01 36:43:72
TRACK 09 AUDIO
TITLE "Wrong But Not False"
PERFORMER "The Wrong Object"
INDEX 01 45:13:55
TRACK 10 AUDIO
TITLE "Flashlight Into Black Hole"
PERFORMER "The Wrong Object"
INDEX 01 50:39:05
TRACK 11 AUDIO
TITLE "Stammtisch"
PERFORMER "The Wrong Object"
INDEX 01 53:44:65
 
Лог проверки качества
-----------------------
DON'T MODIFY THIS FILE
-----------------------
PERFORMER: auCDtect Task Manager, ver. 1.5.1RC4 build 1.5.1.5
Copyright (c) 2008-2010 y-soft. All rights reserved
http://y-soft.org
ANALYZER: auCDtect: CD records authenticity detector, version 0.8.2
Copyright (c) 2004 Oleg Berngardt. All rights reserved.
Copyright (c) 2004 Alexander Djourik. All rights reserved.
FILE: The Wrong Object - After The Exhibition.flac
Size: 407817838 Hash: 28E4DB2D1E4673861EA524E74DCCCC8A Accuracy: -m0
Conclusion: CDDA 100%
Signature: 2625FAD9900AB2FF1CFBCFDFE4C083C036F446CB
 
CUETools log
[CUETools log; Date: 23.03.2014 22:48:19; Version: 2.1.4]
[CTDB TOCID: ktC3sIQODQ_.o4XqT80rTpIdrr4-] found.
Track | CTDB Status
1 | (2/3) Differs in 51 samples @00:10:49,00:11:54,00:12:40,00:16:65,00:24:41,00:46:56,01:00:68,01:05:65,01:18:72,01:47:00,01:47:34,02:54:01
2 | (2/3) Differs in 37 samples @01:04:19,01:10:53-01:10:54,02:06:48,03:21:17,04:06:20,04:45:09-04:45:10
3 | (2/3) Differs in 40 samples @00:54:11,03:13:58,03:50:70,07:56:18
4 | (2/3) Differs in 10 samples @00:43:59,01:17:44,03:14:54
5 | (2/3) Differs in 21 samples @01:47:33,02:16:06,02:32:16,04:46:69
6 | (2/3) Differs in 7 samples @03:42:11
7 | (2/3) Differs in 3 samples @02:54:48
8 | (2/3) Accurately ripped
9 | (2/3) Differs in 12 samples @00:57:37,01:47:45,03:03:23,05:07:55
10 | (2/3) Accurately ripped
11 | (2/3) Differs in 17 samples @02:43:11,02:53:51,05:14:44,05:56:74
[AccurateRip ID: 001886fd-00d59f31-7e0dff0b] found.
Track [ CRC | V2 ] Status
01 [d2e3830f|7e20bdf9] (0+0/2) No match
02 [4b67b8b9|64013561] (0+0/2) No match
03 [dba1a919|55c87a13] (0+0/2) No match
04 [49b65761|c9490cde] (0+0/2) No match
05 [8c725dcc|46bfab1b] (0+0/2) No match
06 [5b5fc2d0|fe3258bc] (0+0/2) No match
07 [7f8831ea|68e54bac] (0+0/2) No match
08 [ca39c654|d162d4fa] (0+0/2) No match
09 [d83e99af|4f72ea93] (0+0/2) No match
10 [103592be|451a9b64] (0+0/2) No match
11 [eb64e4d1|2dba780a] (0+0/2) No match
Offsetted by 762:
01 [adc94242] (0/2) No match (V2 was not tested)
02 [e95a2c08] (0/2) No match (V2 was not tested)
03 [664440d0] (0/2) No match (V2 was not tested)
04 [caa4c6c8] (0/2) No match (V2 was not tested)
05 [69a86b73] (0/2) No match (V2 was not tested)
06 [5fc8ed33] (0/2) No match (V2 was not tested)
07 [77b8c36f] (0/2) No match (V2 was not tested)
08 [409cedf6] (0/2) No match (V2 was not tested)
09 [2c05aa27] (0/2) No match (V2 was not tested)
10 [5771793c] (0/2) No match (V2 was not tested)
11 [8ed25f29] (0/2) No match (V2 was not tested)
Track Peak [ CRC32 ] [W/O NULL] [ LOG ]
-- 98,8 [A1D21B67] [6A973F27] CRC32
01 98,8 [74FDAA27] [F9FDF7EF]
02 98,8 [80E2EDA8] [DEE57F17]
03 98,8 [ABFE4C20] [38F8F7EA]
04 98,8 [F3CE22B9] [0FBEF38C]
05 89,4 [890DEBBB] [AD81DD49]
06 98,8 [07D585C4] [ADCAEBE7]
07 98,8 [D450EDFF] [A9F207C7]
08 98,8 [7B3DEBF3] [C793A8CC]
09 98,8 [BE096163] [A253699F]
10 98,8 [AAD56EDD] [ED82F2A7]
11 98,8 [6B165AC4] [EC1160B7]
Доп. информация
 
Состав
Michel Delville - guitar, Roland GR-09
Antoine Guenet - keyboards, vocals
Marti Melia - bass & tenor saxes, clarinet
Francois Lourtie - tenor, alto & soprano saxes, voice
Pierre Mottet - bass
Laurent Delchambre - drums, percussions, objects, samples
Benoit Moerlen - marimba, electronic vibraphone (Tracks 2, 3, 5, 6, 7 & 11)
Susan Clynes - vocals (Track 8)
 
Об исполнителе
Бельгийская группа умело смешивает Кентербери стиль прог-рока и джаз-фьюжн. Группа находится под влиянием широкого спектра различной музыки, начиная Canterbury Scene prog rock а-ля Soft Machine и Gong, заканчивая Squarepusher, Bela Bartok, Amon Tobin, Aka Moon, Charlie Mingus и Frank Zappa. С момента своего создания в начале 2002 года, группа сотрудничал с такими музыкантами, как Elton Dean, Harry Beckett, Robin Verheyen, Benoit Moerlen, Marco Maurizi, Frogg Cafe... Одним словом, парни серьёзные.
http://www.allmusic.com/album/after-the-exhibition-mw0002540462
 
Back, Disc, Spectrogram
По всем вопросам пишите личное сообщение пользователю M0p94ok.
00:30
153
Нет комментариев. Ваш будет первым!