Вы используете незарегистрированную версию компонента "Вкладки"!

Поиск

(Avant-Garde, Free Improvisation, pfMENTUM) [CD] Zen Widow (Gianni Gebbia, Matthew Goodheart, Garth Powell) featuring Wadada Leo Smith - Screaming in Daytime (Makes Men Forget) - 2012, FLAC (tracks+.cue), lossless

(Avant-Garde, Free Improvisation, pfMENTUM) [CD] Zen Widow (Gianni Gebbia, Matthew Goodheart, Garth Powell) featuring Wadada Leo Smith - Screaming in Daytime (Makes Men Forget) - 2012, FLAC (tracks+.cue), lossless
Треклист:
Zen Widow featuring Wadada Leo Smith / Screaming in Daytime (Makes Men Forget)
Жанр: Avant-Garde, Free Improvisation, pfMENTUM
Носитель: CD
Страна-производитель диска: U.S.A.
Год издания: 2012
Издатель (лейбл): pfMENTUM
Номер по каталогу: PFMCD069
Аудиокодек: FLAC (*.flac)
Тип рипа: tracks+.cue
Битрейт аудио: lossless
Продолжительность: 55:41
Источник (релизер): я
Наличие сканов в содержимом раздачи: да
Треклист:
1. Gifts We Have Forgotten 13:07
2. Notated Memory 12:07
3. Black on White Paper 7:07
4. This Seeming Dream 7:37
5. Musa Physics 15:42
All compositions by Gebbia, Goodheart, Powell, and Smith.
Recorded live at Ocean Way Recording, Hollywood, California.
Zen Widow is:
Gianni Gebbia – Alto Saxophone
Matthew Goodheart – Grand Piano, Electro-Acoustic Gongs and Cymbals
Garth Powell – Drums and Percussion
Special guest artist: Wadada Leo Smith – Trumpet
 
Лог создания рипа
Exact Audio Copy V1.0 beta 3 from 29. August 2011
EAC extraction logfile from 23. March 2014, 16:09
Zen Widow featuring Wadada Leo Smith / Screaming in Daytime (Makes Men Forget)
Used drive : SlimtypeeNAU508 5 Adapter: 1 ID: 0
Read mode : Secure
Utilize accurate stream : Yes
Defeat audio cache : Yes
Make use of C2 pointers : No
Read offset correction : 6
Overread into Lead-In and Lead-Out : No
Fill up missing offset samples with silence : Yes
Delete leading and trailing silent blocks : No
Null samples used in CRC calculations : Yes
Used interface : Native Win32 interface for Win NT & 2000
Gap handling : Appended to previous track
Used output format : User Defined Encoder
Selected bitrate : 768 kBit/s
Quality : High
Add ID3 tag : No
Command line compressor : C:\Program Files (x86)\Exact Audio Copy\Flac\flac.exe
Additional command line options : -8 -V -T "ARTIST=%artist%" -T "TITLE=%title%" -T "ALBUM=%albumtitle%" -T "DATE=%year%" -T "TRACKNUMBER=%tracknr%" -T "TOTALTRACKS=%numtracks%" -T "GENRE=%genre%" -T "ALBUMARTIST=%albumartist%" -T "ALBUM ARTIST=%albumartist%" -T "COMMENT=EAC Secure Mode, Test & Copy, AccurateRip, FLAC -8" %source%
TOC of the extracted CD
Track | Start | Length | Start sector | End sector
---------------------------------------------------------
1 | 0:00.00 | 13:07.09 | 0 | 59033
2 | 13:07.09 | 12:07.17 | 59034 | 113575
3 | 25:14.26 | 7:07.35 | 113576 | 145635
4 | 32:21.61 | 7:37.30 | 145636 | 179940
5 | 39:59.16 | 15:41.43 | 179941 | 250558
Track 1
Filename C:\EAC rips\01 - Gifts We Have Forgotten.wav
Pre-gap length 0:00:02.00
Peak level 100.0 %
Extraction speed 2.6 X
Track quality 100.0 %
Test CRC E70A6F40
Copy CRC E70A6F40
Track not present in AccurateRip database
Copy OK
Track 2
Filename C:\EAC rips\02 - Notated Memory.wav
Pre-gap length 0:00:02.00
Peak level 100.0 %
Extraction speed 3.3 X
Track quality 100.0 %
Test CRC 2571B5DC
Copy CRC 2571B5DC
Track not present in AccurateRip database
Copy OK
Track 3
Filename C:\EAC rips\03 - Black on White Paper.wav
Pre-gap length 0:00:02.00
Peak level 100.0 %
Extraction speed 3.5 X
Track quality 100.0 %
Test CRC 36FF196C
Copy CRC 36FF196C
Track not present in AccurateRip database
Copy OK
Track 4
Filename C:\EAC rips\04 - This Seeming Dream.wav
Pre-gap length 0:00:02.00
Peak level 100.0 %
Extraction speed 3.8 X
Track quality 100.0 %
Test CRC FD2E65CB
Copy CRC FD2E65CB
Track not present in AccurateRip database
Copy OK
Track 5
Filename C:\EAC rips\05 - Musa Physics.wav
Pre-gap length 0:00:01.15
Peak level 100.0 %
Extraction speed 4.2 X
Track quality 99.9 %
Test CRC 29A42ABB
Copy CRC 29A42ABB
Track not present in AccurateRip database
Copy OK
None of the tracks are present in the AccurateRip database
No errors occurred
End of status report
---- CUETools DB Plugin V2.1.4
[CTDB TOCID: vGiNfjh9NTS9vtF_KklA2qXRk9o-] found
Submit result: already submitted
Track | CTDB Status
1 | (1/1) Accurately ripped
2 | (1/1) Accurately ripped
3 | (1/1) Accurately ripped
4 | (1/1) Accurately ripped
5 | (1/1) Accurately ripped
==== Log checksum 1611221F1A128E413EE7C14B663C21A90B0A6A2BA6BC30CEDA4D4F806C862AE9 ====
 
Содержание индексной карты (.CUE)
REM GENRE Jazz
REM DATE 2012
REM DISCID 3F0D0C05
REM COMMENT "ExactAudioCopy v1.0b3"
PERFORMER "Zen Widow featuring Wadada Leo Smith"
TITLE "Screaming in Daytime (Makes Men Forget)"
FILE "01 - Gifts We Have Forgotten.wav" WAVE
TRACK 01 AUDIO
TITLE "Gifts We Have Forgotten"
PERFORMER "Zen Widow featuring Wadada Leo Smith"
INDEX 01 00:00:00
TRACK 02 AUDIO
TITLE "Notated Memory"
PERFORMER "Zen Widow featuring Wadada Leo Smith"
INDEX 00 13:05:09
FILE "02 - Notated Memory.wav" WAVE
INDEX 01 00:00:00
TRACK 03 AUDIO
TITLE "Black on White Paper"
PERFORMER "Zen Widow featuring Wadada Leo Smith"
INDEX 00 12:05:17
FILE "03 - Black on White Paper.wav" WAVE
INDEX 01 00:00:00
TRACK 04 AUDIO
TITLE "This Seeming Dream"
PERFORMER "Zen Widow featuring Wadada Leo Smith"
INDEX 00 07:05:35
FILE "04 - This Seeming Dream.wav" WAVE
INDEX 01 00:00:00
TRACK 05 AUDIO
TITLE "Musa Physics"
PERFORMER "Zen Widow featuring Wadada Leo Smith"
INDEX 00 07:36:15
FILE "05 - Musa Physics.wav" WAVE
INDEX 01 00:00:00
По всем вопросам пишите личное сообщение пользователю M0p94ok.
00:30
167
Нет комментариев. Ваш будет первым!