Вы используете незарегистрированную версию компонента "Вкладки"!

Поиск

(Avant-Garde Jazz / Free Improvisation) [CD] 2 etage (Christine Wodrascka, Jean-Luc Cappozzo, Gerry Hemingway) - Grey Matter - 2013 [NoBusiness Records NBCD 63], FLAC (tracks+.cue), lossless

(Avant-Garde Jazz / Free Improvisation) [CD] 2 etage (Christine Wodrascka, Jean-Luc Cappozzo, Gerry Hemingway) - Grey Matter - 2013 [NoBusiness Records NBCD 63], FLAC (tracks+.cue), lossless
Треклист:
2° étage
Christine Wodrascka / Jean-Luc Cappozzo / Gerry Hemingway - Grey Matter
Жанр: Avant-Garde Jazz / Free Improvisation
Носитель: CD
Страна-производитель диска: Lithuania
Год издания: 2013
Издатель (лейбл): NoBusiness Records
Номер по каталогу: NBCD 63
Аудиокодек: FLAC (*.flac)
Тип рипа: tracks+.cue
Битрейт аудио: lossless
Продолжительность: 00:48:52
Источник (релизер): nnm, Джаз Клуб, 21 марта, 2014 / спасибо mishka1981
Наличие сканов в содержимом раздачи: да
Треклист:
1. Echappée belle (10:42)
2. Rivulet (07:17)
3. The sheriff arrives (04:55)
4. Grey matter (08:15)
5. Possession (03:33)
6. Up down (03:20)
7. The ghost train (05:12)
8. Tanz Ende (05:31)
All the music is improvised by Jean-Luc Cappozzo, Gerry Hemingway and Christine Wodrascka
Доп. информация:
Musicians:
Christine Wodrascka - piano
Jean-Luc Cappozzo - trumpet, bugle
Gerry Hemingway - percussion
Recorded in October 18th 2012, live in Le Carré Bleu, Poitiers, France
© 2013, NoBusiness Records
2° étage - Grey Matter nobusinessrecords.com
2° étage - Grey Matter allaboutjazz.com
Christine Wodrascka from Wikipedia, the free encyclopedia
JJean-Luc Cappozzo Official Site
Gerry Hemingway Official Site
Gerry Hemingway from Wikipedia, the free encyclopedia
 
... back ...
 
... review ...
Although the title of this album refers to a major component of the central nervous system consisting of neuronal cell bodies and therefore something which belongs to the human body, listening to it makes me think of something completely different. I imagine myself standing on a large ascending meadow, I am contemplating the little flowers, the bees, the flies and the bugs, it is a world of its own, joyous and frolic. In a musical way, this is what the beginning of “Echappée belle”, the first track, is like. Jean-Luc Cappozzo (tp) starts with a Nate-Wooley-like approach, it’s an excursion in breath and extended techniques, it sounds as if there were two trumpets. Gerry Hemingway (dr) joins him but does not deliver a pulse, the drums are another solo instrument. But then I feel that there is something wrong, there is a rumbling and mumbling, as if the earth was slightly quaking; the meadow is rising at the opposite end, there is a slow but threatening debris avalanche coming towards me, it’s shape is shifting, as if it was alive. Christine Wodrascka (p), who has been the one holding the piece together with her prepared piano, has started delivering dark, gloomy and muffled low-key chords, Cappozzo plays shrill notes which are hardly recognizable as trumpet sounds and Hemingway concentrates on his toms. I look at and listen to this wonder of nature in a puzzled way because I don’t know what will happen next.
As to structure there are similar tracks like “Ghost Train” featuring Wodrascka bowing the strings of the interior of the piano while Cappozzo has turned to regular sounds and nervous runs; or “Rivulet” which presents an alternative ending: the trumpet plays a beautiful harmonic melody here.
Other highlights are short pieces like “Possession” with its disharmonic piano chords, its coughing and its belling or “Tanz Ende” (German for: The End of the Dance), which features Wodrascka and Hemingway throwing in sparse sounds, while Cappozzo is hardly audible - it sounds as if parts of what they play are cut out (especially Wodrascka’s part) - it is a sketch, an outline, a draft. It really seems as if the album was in its final throes before all of a sudden it turns in a mad, but funny simple waltz, which is immediately alienated.
All the music is improvised by these experienced musicians and especially Christine Wodrascka, who says that she likes to look for unique and authentic moments in music and who seems to be a bit underrepresented (at least on our blog) although she has played with a lot of the best European improvisers like Joëlle Léandre, Paul Lovens or Fred VanHove, is simply outstanding. Her style meanders between Alex von Schlippenbach, new classical music, sound explorations and even Cecil Taylor (“Up Down“). She is worth a deeper dig.
Martin Schray ~ freejazzblog.org
 
Лог создания рипа
Exact Audio Copy V1.0 beta 1 from 15. November 2010
EAC extraction logfile from 21. March 2014, 21:25
Various / Grey Matter
Used drive : Optiarc DVD RW AD-7710H Adapter: 1 ID: 0
Read mode : Secure
Utilize accurate stream : Yes
Defeat audio cache : Yes
Make use of C2 pointers : No
Read offset correction : 48
Overread into Lead-In and Lead-Out : No
Fill up missing offset samples with silence : Yes
Delete leading and trailing silent blocks : No
Null samples used in CRC calculations : Yes
Used interface : Native Win32 interface for Win NT & 2000
Gap handling : Appended to previous track
Used output format : User Defined Encoder
Selected bitrate : 896 kBit/s
Quality : High
Add ID3 tag : No
Command line compressor : C:\Program Files\Exact Audio Copy\FLAC\FLAC.EXE
Additional command line options : -8 -V -T "ARTIST=%a" -T "TITLE=%t" -T "ALBUM=%g" -T "DATE=%y" -T "TRACKNUMBER=%n" -T "GENRE=%m" -T "COMMENT=%e" %j--picture="%i"%j %s -o %d
TOC of the extracted CD
Track | Start | Length | Start sector | End sector
---------------------------------------------------------
1 | 0:00.00 | 10:46.18 | 0 | 48467
2 | 10:46.18 | 7:20.48 | 48468 | 81515
3 | 18:06.66 | 4:58.67 | 81516 | 103932
4 | 23:05.58 | 8:18.71 | 103933 | 141353
5 | 31:24.54 | 3:37.03 | 141354 | 157631
6 | 35:01.57 | 3:23.16 | 157632 | 172872
7 | 38:24.73 | 5:15.34 | 172873 | 196531
8 | 43:40.32 | 5:32.55 | 196532 | 221486
Track 1
Filename C:\MY RIPS\01_Echappee belle - Echappee belle.wav
Pre-gap length 0:00:02.00
Peak level 96.6 %
Extraction speed 3.4 X
Track quality 100.0 %
Test CRC F93DE42F
Copy CRC F93DE42F
Track not present in AccurateRip database
Copy OK
Track 2
Filename C:\MY RIPS\02_Rivulet - Rivulet.wav
Pre-gap length 0:00:03.00
Peak level 96.6 %
Extraction speed 3.5 X
Track quality 99.9 %
Test CRC 2B117587
Copy CRC 2B117587
Track not present in AccurateRip database
Copy OK
Track 3
Filename C:\MY RIPS\03_The sheriff arrives - The sheriff arrives.wav
Pre-gap length 0:00:03.00
Peak level 96.6 %
Extraction speed 4.1 X
Track quality 100.0 %
Test CRC 25B4D569
Copy CRC 25B4D569
Track not present in AccurateRip database
Copy OK
Track 4
Filename C:\MY RIPS\04_Grey matter - Grey matter.wav
Pre-gap length 0:00:03.00
Peak level 90.8 %
Extraction speed 4.7 X
Track quality 100.0 %
Test CRC 7EA57197
Copy CRC 7EA57197
Track not present in AccurateRip database
Copy OK
Track 5
Filename C:\MY RIPS\05_Posession - Posession.wav
Pre-gap length 0:00:03.00
Peak level 96.6 %
Extraction speed 4.6 X
Track quality 100.0 %
Test CRC 3B7DB65C
Copy CRC 3B7DB65C
Track not present in AccurateRip database
Copy OK
Track 6
Filename C:\MY RIPS\06_Up down - Up down.wav
Pre-gap length 0:00:03.00
Peak level 96.6 %
Extraction speed 3.8 X
Track quality 99.9 %
Test CRC BA087CF6
Copy CRC BA087CF6
Track not present in AccurateRip database
Copy OK
Track 7
Filename C:\MY RIPS\07_The ghost train - The ghost train.wav
Pre-gap length 0:00:03.00
Peak level 96.6 %
Extraction speed 4.4 X
Track quality 99.9 %
Test CRC CBDD1A7E
Copy CRC CBDD1A7E
Track not present in AccurateRip database
Copy OK
Track 8
Filename C:\MY RIPS\08_Tanz ende - Tanz ende.wav
Pre-gap length 0:00:03.00
Peak level 96.6 %
Extraction speed 4.7 X
Track quality 99.9 %
Test CRC ED83A5D8
Copy CRC ED83A5D8
Track not present in AccurateRip database
Copy OK
None of the tracks are present in the AccurateRip database
No errors occurred
End of status report
==== Log checksum 767B5E0C3CFD835212A350A7AB5FE2A482DBF71296CB30B2E65A19811F441F5C ====
 
Содержание индексной карты (.CUE)
REM DISCID 6C0B8908
REM COMMENT "ExactAudioCopy v1.0b1"
PERFORMER "Various"
TITLE "Grey Matter"
FILE "01_Echappee belle - Echappee belle.wav" WAVE
TRACK 01 AUDIO
TITLE "Echappee belle"
PERFORMER "Echappee belle"
INDEX 01 00:00:00
TRACK 02 AUDIO
TITLE "Rivulet"
PERFORMER "Rivulet"
INDEX 00 10:43:18
FILE "02_Rivulet - Rivulet.wav" WAVE
INDEX 01 00:00:00
TRACK 03 AUDIO
TITLE "The sheriff arrives"
PERFORMER "The sheriff arrives"
INDEX 00 07:17:48
FILE "03_The sheriff arrives - The sheriff arrives.wav" WAVE
INDEX 01 00:00:00
TRACK 04 AUDIO
TITLE "Grey matter"
PERFORMER "Grey matter"
INDEX 00 04:55:67
FILE "04_Grey matter - Grey matter.wav" WAVE
INDEX 01 00:00:00
TRACK 05 AUDIO
TITLE "Posession"
PERFORMER "Posession"
INDEX 00 08:15:71
FILE "05_Posession - Posession.wav" WAVE
INDEX 01 00:00:00
TRACK 06 AUDIO
TITLE "Up down"
PERFORMER "Up down"
INDEX 00 03:34:03
FILE "06_Up down - Up down.wav" WAVE
INDEX 01 00:00:00
TRACK 07 AUDIO
TITLE "The ghost train"
PERFORMER "The ghost train"
INDEX 00 03:20:16
FILE "07_The ghost train - The ghost train.wav" WAVE
INDEX 01 00:00:00
TRACK 08 AUDIO
TITLE "Tanz ende"
PERFORMER "Tanz ende"
INDEX 00 05:12:34
FILE "08_Tanz ende - Tanz ende.wav" WAVE
INDEX 01 00:00:00
 
auCDtect Task Manager
-----------------------
DON'T MODIFY THIS FILE
-----------------------
PERFORMER: auCDtect Task Manager, ver. 1.5.1RC6 build 1.5.1.7
Copyright (c) 2008-2010 y-soft. All rights reserved
http://y-soft.org
ANALYZER: auCDtect: CD records authenticity detector, version 0.8.2
Copyright (c) 2004 Oleg Berngardt. All rights reserved.
Copyright (c) 2004 Alexander Djourik. All rights reserved.
FILE: 08_Tanz ende - Tanz ende.flac
Size: 20404489 Hash: 9F77097085A4C0C85C39A8CDEA61A9F8 Accuracy: -m0
Conclusion: CDDA 100%
Signature: 1B7DBA091C6A5982E2676E9330A6D87B0DF3C1DC
FILE: 07_The ghost train - The ghost train.flac
Size: 30589912 Hash: 84D6AEEB69F119E7DF8FE7ABF7C0D1C4 Accuracy: -m0
Conclusion: CDDA 100%
Signature: 6F8561F0FB1A74D7612D304B0261BF18EFD6489D
FILE: 06_Up down - Up down.flac
Size: 16219573 Hash: 1DB39B5F1A23D6B80DF48C9A7B941659 Accuracy: -m0
Conclusion: CDDA 100%
Signature: C9514861AFB6A8919D4678F06EAE2007B6670684
FILE: 05_Posession - Posession.flac
Size: 19368926 Hash: 64A0EC2C4AF284E30FAE024CAD338942 Accuracy: -m0
Conclusion: CDDA 100%
Signature: 96F603A173080713D61BBF6C03F65B9E2834E0D7
FILE: 04_Grey matter - Grey matter.flac
Size: 37845579 Hash: 9E2B7018F65D6079EB6FBC5573453E55 Accuracy: -m0
Conclusion: CDDA 100%
Signature: 79441660D92CDD69FD894B6AADBCF8415DC76DA3
FILE: 03_The sheriff arrives - The sheriff arrives.flac
Size: 27712430 Hash: DA0BCE18690E7E14710C0F220A5D0D43 Accuracy: -m0
Conclusion: CDDA 100%
Signature: D52E628ADE402B795B8D81D6EAAE25AF6493570C
FILE: 02_Rivulet - Rivulet.flac
Size: 36055811 Hash: 0FBF93ABBD505EDEA42864BDF7D7B417 Accuracy: -m0
Conclusion: CDDA 99%
Signature: 3F1A3FCEE827E14EEDCFE5623213350483E8E1C3
FILE: 01_Echappee belle - Echappee belle.flac
Size: 57906295 Hash: 1886A8C3F177DF92188914D4A36433F8 Accuracy: -m0
Conclusion: CDDA 100%
Signature: F6C20FFF5262EAF68EA9C135EC3E493947EBD9B9
По всем вопросам пишите личное сообщение пользователю M0p94ok.
00:29
139
Нет комментариев. Ваш будет первым!