Вы используете незарегистрированную версию компонента "Вкладки"!

Поиск

(Avant-Garde Jazz, Free Improvisation) [CD] Lawrence D. "Butch" Morris - Conduction #70, TIT For TAT - 1998, FLAC (tracks+.cue), lossless

(Avant-Garde Jazz, Free Improvisation) [CD] Lawrence D. "Butch" Morris - Conduction #70, TIT For TAT - 1998, FLAC (tracks+.cue), lossless
Треклист:
Lawrence D. "Butch" Morris / Conduction #70, TIT For TAT
Жанр: Avant-Garde Jazz, Free Improvisation
Носитель: CD
Страна-производитель диска: Switzerland
Год издания: 1998
Издатель (лейбл): For 4 Ears Records
Номер по каталогу: CD 927
Страна: US
Аудиокодек: FLAC (*.flac)
Тип рипа: tracks+.cue
Битрейт аудио: lossless
Продолжительность: 48:09
Источник (релизер): свой фирменный диск
Наличие сканов в содержимом раздачи:
Треклист:
1. untitled
2. untitled
3. untitled
 
Лог создания рипа
Exact Audio Copy V1.0 beta 3 from 29. August 2011
EAC extraction logfile from 10. March 2014, 20:53
Lawrence Butch Morris / Conduction #70, TIT For TAT
Used drive : PIONEER DVD-RW DVR-115D Adapter: 0 ID: 0
Read mode : Secure
Utilize accurate stream : Yes
Defeat audio cache : Yes
Make use of C2 pointers : No
Read offset correction : 48
Overread into Lead-In and Lead-Out : No
Fill up missing offset samples with silence : Yes
Delete leading and trailing silent blocks : No
Null samples used in CRC calculations : Yes
Used interface : Installed external ASPI interface
Gap handling : Appended to previous track
Used output format : User Defined Encoder
Selected bitrate : 896 kBit/s
Quality : High
Add ID3 tag : No
Command line compressor : C:\Program Files\Exact Audio Copy\FLAC\FLAC.EXE
Additional command line options : -6 -V -T "ARTIST=%artist%" -T "TITLE=%title%" -T "ALBUM=%albumtitle%" -T "DATE=%year%" -T "TRACKNUMBER=%tracknr%" -T "GENRE=%genre%" -T "COMMENT=%comment%" -T "BAND=%albuminterpret%" -T "COMPOSER=%composer%" %haslyrics%--tag-from-file=LYRICS="%lyricsfile%"%haslyrics% -T "DISCNUMBER=%cdnumber%" -T "TOTALDISCS=%totalcds%" -T "TOTALTRACKS=%numtracks%" %hascover%--picture="%coverfile%"%hascover% %source% -o %dest%
TOC of the extracted CD
Track | Start | Length | Start sector | End sector
---------------------------------------------------------
1 | 0:00.00 | 37:50.74 | 0 | 170323
2 | 37:50.74 | 7:41.12 | 170324 | 204910
3 | 45:32.11 | 2:37.11 | 204911 | 216696
Track 1
Filename D:\zzz\01 - untitled.wav
Pre-gap length 0:00:02.00
Peak level 100.0 %
Extraction speed 6.5 X
Track quality 100.0 %
Test CRC 3BDB7188
Copy CRC 3BDB7188
Accurately ripped (confidence 2) [7FC5F9D0] (AR v2)
Copy OK
Track 2
Filename D:\zzz\02 - untitled.wav
Pre-gap length 0:00:03.36
Peak level 100.0 %
Extraction speed 7.5 X
Track quality 99.9 %
Test CRC 269A776A
Copy CRC 269A776A
Accurately ripped (confidence 2) [BFB07012] (AR v2)
Copy OK
Track 3
Filename D:\zzz\03 - untitled.wav
Pre-gap length 0:00:02.08
Peak level 100.0 %
Extraction speed 7.2 X
Track quality 100.0 %
Test CRC 8BFF24DE
Copy CRC 8BFF24DE
Accurately ripped (confidence 2) [037341CA] (AR v2)
Copy OK
All tracks accurately ripped
No errors occurred
End of status report
==== Log checksum 820EDF8F30BA1BDDCCB1C357DF8981573455A481DC28BD0BF57A32A81FEF0CFF ====
 
Содержание индексной карты (.CUE)
REM GENRE EAI
REM DATE 1998
REM DISCID 1F0B4903
REM COMMENT "ExactAudioCopy v1.0b3"
PERFORMER "Lawrence Butch Morris"
TITLE "Conduction #70, TIT For TAT"
FILE "01 - untitled.wav" WAVE
TRACK 01 AUDIO
TITLE "untitled"
PERFORMER "Lawrence Butch Morris"
INDEX 01 00:00:00
TRACK 02 AUDIO
TITLE "untitled"
PERFORMER "Lawrence Butch Morris"
INDEX 00 37:47:38
FILE "02 - untitled.wav" WAVE
INDEX 01 00:00:00
TRACK 03 AUDIO
TITLE "untitled"
PERFORMER "Lawrence Butch Morris"
INDEX 00 07:39:04
FILE "03 - untitled.wav" WAVE
INDEX 01 00:00:00
 
Лог проверки качества
d:\>d:\aucdtect -d/-m0 d:\zzz\*.wav
auCDtect: CD records authenticity detector, version 0.8.2
Copyright (c) 2004 Oleg Berngardt. All rights reserved.
Copyright (c) 2004 Alexander Djourik. All rights reserved.
------------------------------------------------------------
Processing file: [01. untitled.wav]
------------------------------------------------------------
This track looks like CDDA with probability 99%
------------------------------------------------------------
Processing file: [02. untitled.wav]
------------------------------------------------------------
This track looks like CDDA with probability 99%
------------------------------------------------------------
Processing file: [03. untitled.wav]
------------------------------------------------------------
This track looks like CDDA with probability 99%
------------------------------------------------------------
Final Conclusion:
------------------------------------------------------------
These tracks looks like CDDA with probability 100%
Доп. информация:
 
Album Info & AMG Review
Recorded live at Fabrikjazz Zurich September 29, 1996
Digital editing and cover design by Gunter Muller
Mastering by Pierre Bendel at Studio Zack, St. Gallen
Thanks to all who participated, and also to Fredi Bosshard, Bena Schutz-Doshi, Joyful Noise Biel, Fabrikjazz Zurich, and Kuratorium des Kanton Aargau
Produced by Hans Koch, Gunter Muller
Liner notes: Fredi Bosshard
Recorded in abandoned watch factory in Zurich, after an of musicians from a jazz festival were assembled by saxophonist Hans Koch, Conduction #70 is one of the most provocative and strange works ever issued by Butch Morris. Working with 15 other musicians, many of whom he had never worked with before, Morris's cryptic batch of instructions for conducted improvisation were ingested whole by people like Jim O'Rourke, Fredy Studer, Koch, Stephan Wittwer, Martin Schutz, Gunther Mulller, and many others. Morris unfolds the piece as a sonic construction first, with whisks of air coming through the horns and microphonic exercises. This is followed by a long, slowly developing series of short breathy phrases by the entire horn section and underscored by the guitars before becoming highlighted and accented by electronics and percussion. There are long pauses where silence comes to play as part of a tension-building device. The cycle starts over with a new group of instruments, strings this time, creating a body of notes, nuances, and monosyllabic vocal utterances before being joined by the rest of the instruments in the orchestra. This is ghost music, highly intuitive heat moving around as a subtle energy body through sound. Morris knows exactly what he's doing; his penchant for gradually developing dynamics and a slowly crafted harmonic infrastructure are uncanny.
 
Состав
B. Buster: turntables
Pete Ehrnrooth: clarinets, saxophones
Andy Guhl: cracked everyday-electronics
Hans Koch: clarinets, saxophones
Edgar Laubscher: electric viola
Lawrence Butch Morris: conductor
Norbert Moslang: cracked everyday-electronics
Daniel Mouthon: voice
Gunter Muller: drums, electronics
Jim O'Rourke: acoustic guitar
Dorothea Schurch: voice
Martin Schutz: electric 5-string cello
Marie Schwab: acoustic violin
Nicolas Sordet: electronics
Fredy Studer: drums
Stephan Wittwer: electric guitar
По всем вопросам пишите личное сообщение пользователю M0p94ok.
00:28
151
Нет комментариев. Ваш будет первым!